Добейся успеха 4: Всё за победу / Bring It On: In It to Win It (2007) DVDRip [AVI|320x178]

 
 Статистика раздачи 
Размер: 278.84 МБ   |  Зарегистрирован: 23 июн 2016, 18:45   |   .torrent скачан: 0 раз
Сидеров: 1  [ 0 байт/сек ]     Личеров: 0  [ 0 байт/сек ]  
  

Добейся успеха 4: Всё за победу / Bring It On: In It to Win It (2007) DVDRip [AVI|320x178]

Сообщение explosiveone » 23 июн 2016, 18:45

Добейся успеха 4: Всё за победу / Bring It On: In It to Win It (2007) DVDRip

Производство: США
Жанр: Комедия

Режиссер: Стив Рэш / Steve Rash
Актеры: Эшли Бенсон, Кэсси Сербо, Ноэл Ареизага, Дженнифер Тисдейл, Кирстен Коппел, Энниес Тейлор Денди, Джейн Парк Смит, Лиза Глейз, Адам Вернье, Майкл Копон

Описание:
Отважные «Ракеты» Восточного Побережья самоуверенно и храбро побеждают в соревнованиях последние несколько лет. Сейчас предприимчивые «Акулы» с Западного Побережья решили, что настал час заполучить корону в свою команду. Когда мечте привести главный приз домой угрожает опасность, лидеры обоих команд понимают, что им придется работать вместе, чтобы добиться успеха, как никогда раньше!


Возраст: 16+ (зрителям, достигшим 16 лет)
Рейтинг MPAA: PG-13 (детям до 13 лет просмотр нежелателен)
Дата мировой премьеры: 12 декабря 2007
Дата выхода DVD/Blu-ray релиза: 21 октября 2008

Продолжительность: 01:26:41
Качество видео: DVDRip
Перевод: Многоголосый закадровый

Видео: Xvid, 320x178, ~350 kbps
Аудио: MP3, 2 ch, 96 kbps
Код:
Код: Выделить всё
Общее
Полное имя                               : D:\Dobeysya.uspeha.4.2007.DVDRip.320x.kpk.by.NeoJet.avi
Формат                                   : AVI
Формат/Информация                        : Audio Video Interleave
Размер файла                             : 279 Мбайт
Продолжительность                        : 1 ч. 26 м.
Режим общего битрейта                    : Переменный
Общий поток                              : 450 Кбит/сек
Программа кодирования                    : MEncoder SVN-r31918
Библиотека кодирования                   : MPlayer

Видео
Идентификатор                            : 0
Формат                                   : MPEG-4 Visual
Профиль формата                          : Advanced Simple@L5
Параметр BVOP формата                    : 2
Параметр QPel формата                    : Нет
Параметр GMC формата                     : Без точки перехода
Параметр матрицы формата                 : Default (H.263)
Идентификатор кодека                     : XVID
Идентификатор кодека/Подсказка           : XviD
Продолжительность                        : 1 ч. 26 м.
Битрейт                                  : 345 Кбит/сек
Ширина                                   : 320 пикселей
Высота                                   : 178 пикселей
Соотношение сторон                       : 16:9
Частота кадров                           : 25,000 кадров/сек
Цветовое пространство                    : YUV
Субдискретизация насыщенности            : 4:2:0
Битовая глубина                          : 8 бит
Тип развёртки                            : Прогрессивная
Метод сжатия                             : С потерями
Бит/(Пиксели*Кадры)                      : 0.242
Размер потока                            : 214 Мбайт (77%)
Библиотека кодирования                   : XviD 1.2.1 (UTC 2008-12-04)

Аудио
Идентификатор                            : 1
Формат                                   : MPEG Audio
Версия формата                           : Version 1
Профиль формата                          : Layer 3
Идентификатор кодека                     : 55
Идентификатор кодека/Подсказка           : MP3
Продолжительность                        : 1 ч. 26 м.
Вид битрейта                             : Переменный
Битрейт                                  : 91,8 Кбит/сек
Каналы                                   : 2 канала
Частота                                  : 48,0 КГц
Метод сжатия                             : С потерями
Размер потока                            : 56,9 Мбайт (20%)
Выравнивание                             : Соединение по промежуткам
Продолжительность промежутка             : 24  мс. (0,60 видеокадр)
Время предзагрузки промежутка            : 523  мс.

Скриншоты:



Время раздачи: 24/7 (круглосуточно) (раздаю до 10 июля 2016)
 
Не забывайте говорить Спасибо. Не уходите с раздачи!   
Торрент: Зарегистрирован [23 июн 2016, 18:45] Для скачивания .torrent
необходима регистрация
Или скачать с помощью
MediaGet
Статус:
Проверен
 
.torrent скачан: 0 раз
Хэш: 8ab9f751563d929c84aac0bd40fbda8b9613f3c6
Размер: 278.84 МБ (292 383 398 байт)
Стать Автором раздачи
 
 
Раздал: 100 ГБ
Скачал: 0 байт
Ратио: Seed.
Сообщения: 94048
Зарегистрирован: 09 апр 2015, 22:31


  • Похожие торренты
    Ответы
    Просмотры
    Последнее сообщение

Вернуться в Видео для мобильных устройств

Ресурс не предоставляет электронные версии произведений, а занимается лишь коллекционированием и каталогизацией ссылок, присылаемых и публикуемых на форуме нашими читателями. Если вы являетесь правообладателем какого-либо представленного материала и не желаете чтобы ссылка на него находилась в нашем каталоге, свяжитесь с нами и мы незамедлительно удалим её. Файлы для обмена на трекере предоставлены пользователями сайта, и администрация не несёт ответственности за их содержание. Просьба не заливать файлы, защищенные авторскими правами, а также файлы нелегального содержания!
cron