Американский пирог представляет: Музыкальный лагерь / American Pie Presents: Band Camp (2005) DVDRip [AVI|320x178]

 
 Статистика раздачи 
Размер: 280.93 МБ   |  Зарегистрирован: 23 июн 2016, 04:13   |   .torrent скачан: 0 раз
Сидеров: 1  [ 0 байт/сек ]     Личеров: 0  [ 0 байт/сек ]  
  

Американский пирог представляет: Музыкальный лагерь / American Pie Presents: Band Camp (2005) DVDRip [AVI|320x178]

Сообщение explosiveone » 23 июн 2016, 04:13

Американский пирог представляет: Музыкальный лагерь / American Pie Presents: Band Camp (2005) DVDRip

Производство: США
Жанр: Комедия

Режиссер: Стив Рэш / Steve Rash
Актеры: Юджин Леви, Тэд Хилдженбринк, Ариэль Кеббел, Джейсон Ерлс, Кристл Лайтнинг, Джан Хи Ли, Мэтт Барр, Крис Оуэн, Лоурен С. Мэйхью и др.

Описание:
В серии «Американский пирог» представляет «Музыкальный лагерь» младший брат Стифлера Мэтт «приговорен» к летним каникулам в лагере, где он устраивает массу проделок с помощью скрытых камер и других не менее отвязных обитателей.
Его поведение становится совсем возмутительным, после дружбы с «членом банды» по имени Элайз. Папа Джима вновь появляется в роли мудрого наставника, который пытается помочь младшему брату Стифлера вернуться на путь истинный.


Возраст: 16+ (зрителям, достигшим 16 лет)
Рейтинг MPAA: R (лицам до 17 лет обязательно присутствие взрослого)
Дата мировой премьеры: 31 октября 2005
Дата выхода DVD/Blu-ray релиза: 6 августа 2012

Продолжительность: 01:27:17
Качество видео: DVDRip
Перевод: Дублированный

Видео: Xvid, 320x178, ~350 kbps
Аудио: MP3, 2 ch, 96 kbps
Код:
Код: Выделить всё
Общее
Полное имя                               : D:\Amerikanskij.pirog.4.2005.DVDRip.320x.kpk.by.NeoJet.avi
Формат                                   : AVI
Формат/Информация                        : Audio Video Interleave
Размер файла                             : 281 Мбайт
Продолжительность                        : 1 ч. 27 м.
Режим общего битрейта                    : Переменный
Общий поток                              : 450 Кбит/сек
Программа кодирования                    : MEncoder SVN-r31918
Библиотека кодирования                   : MPlayer

Видео
Идентификатор                            : 0
Формат                                   : MPEG-4 Visual
Профиль формата                          : Advanced Simple@L5
Параметр BVOP формата                    : 2
Параметр QPel формата                    : Нет
Параметр GMC формата                     : Без точки перехода
Параметр матрицы формата                 : Default (H.263)
Идентификатор кодека                     : XVID
Идентификатор кодека/Подсказка           : XviD
Продолжительность                        : 1 ч. 27 м.
Битрейт                                  : 345 Кбит/сек
Ширина                                   : 320 пикселей
Высота                                   : 178 пикселей
Соотношение сторон                       : 16:9
Частота кадров                           : 25,000 кадров/сек
Цветовое пространство                    : YUV
Субдискретизация насыщенности            : 4:2:0
Битовая глубина                          : 8 бит
Тип развёртки                            : Прогрессивная
Метод сжатия                             : С потерями
Бит/(Пиксели*Кадры)                      : 0.242
Размер потока                            : 215 Мбайт (77%)
Библиотека кодирования                   : XviD 1.2.1 (UTC 2008-12-04)

Аудио
Идентификатор                            : 1
Формат                                   : MPEG Audio
Версия формата                           : Version 1
Профиль формата                          : Layer 3
Идентификатор кодека                     : 55
Идентификатор кодека/Подсказка           : MP3
Продолжительность                        : 1 ч. 27 м.
Вид битрейта                             : Переменный
Битрейт                                  : 92,1 Кбит/сек
Каналы                                   : 2 канала
Частота                                  : 48,0 КГц
Метод сжатия                             : С потерями
Размер потока                            : 57,5 Мбайт (20%)
Выравнивание                             : Соединение по промежуткам
Продолжительность промежутка             : 24  мс. (0,60 видеокадр)
Время предзагрузки промежутка            : 527  мс.

Скриншоты:



Время раздачи: 24/7 (круглосуточно) (раздаю до 10.07.2016)
 
Не забывайте говорить Спасибо. Не уходите с раздачи!   
Торрент: Зарегистрирован [23 июн 2016, 04:13] Для скачивания .torrent
необходима регистрация
Или скачать с помощью
MediaGet
Статус:
Проверен
 
.torrent скачан: 0 раз
Хэш: 3ba3db0aebd2ba6abd58815093cb7fe3c22ed4e1
Размер: 280.93 МБ (294 571 710 байт)
Стать Автором раздачи
 
 
Раздал: 100 ГБ
Скачал: 0 байт
Ратио: Seed.
Сообщения: 94069
Зарегистрирован: 09 апр 2015, 22:31


  • Похожие торренты
    Ответы
    Просмотры
    Последнее сообщение

Вернуться в Видео для мобильных устройств

Ресурс не предоставляет электронные версии произведений, а занимается лишь коллекционированием и каталогизацией ссылок, присылаемых и публикуемых на форуме нашими читателями. Если вы являетесь правообладателем какого-либо представленного материала и не желаете чтобы ссылка на него находилась в нашем каталоге, свяжитесь с нами и мы незамедлительно удалим её. Файлы для обмена на трекере предоставлены пользователями сайта, и администрация не несёт ответственности за их содержание. Просьба не заливать файлы, защищенные авторскими правами, а также файлы нелегального содержания!
cron