Американский пирог / American Pie (1999) BDRip [AVI|320x174]

 
 Статистика раздачи 
Размер: 307.05 МБ   |  Зарегистрирован: 23 июн 2016, 04:12   |   .torrent скачан: 0 раз
Сидеров: 1  [ 0 байт/сек ]     Личеров: 0  [ 0 байт/сек ]  
  

Американский пирог / American Pie (1999) BDRip [AVI|320x174]

Сообщение explosiveone » 23 июн 2016, 04:12

Американский пирог / American Pie (1999) BDRip

Производство: США
Жанр: Комедия, Мелодрама

Режиссер: Пол Вайц / Paul Weitz, Крис Вайц / Chris Weitz
Актеры: Джейсон Биггз, Крис Клейн, Томас Иэн Николас, Эдди Кэй Томас, Мена Сувари, Тара Рид, Шеннон Элизабет, Элисон Хэннигэн, Шонн Уильям Скотт, Юджин Леви

Описание:
На вечеринке четверо старшеклассников, Джим, Кевин, Финч и Оз, выясняют, что никто из них еще не имел сексуального опыта с девушками. Приятели считают, что с коллективной девственностью надо обязательно расстаться до того, как они переступят порог колледжа. На носу школьный выпускной бал, и у друзей осталось совсем мало времени на то, чтобы выполнить задуманное.


Возраст: 16+ (зрителям, достигшим 16 лет)
Рейтинг MPAA: R (лицам до 17 лет обязательно присутствие взрослого)
Дата мировой премьеры: 9 июля 1999
Дата российской премьеры: 20 января 2000
Дата выхода DVD/Blu-ray релиза: 18 июля 2000

Продолжительность: 01:35:37
Качество видео: BDRip
Перевод: Дублированный

Видео: Xvid, 320x174, ~350 kbps
Аудио: MP3, 2 ch, 96 kbps
Код:
Код: Выделить всё
Общее
Полное имя                               : D:\Amerikanskij.pirog.1.UNRATED.1999.BDRip.320x.kpk.by.NeoJet.avi
Формат                                   : AVI
Формат/Информация                        : Audio Video Interleave
Размер файла                             : 307 Мбайт
Продолжительность                        : 1 ч. 35 м.
Общий поток                              : 449 Кбит/сек
Программа кодирования                    : MEncoder SVN-r31918
Библиотека кодирования                   : MPlayer

Видео
Идентификатор                            : 0
Формат                                   : MPEG-4 Visual
Профиль формата                          : Advanced Simple@L5
Параметр BVOP формата                    : 2
Параметр QPel формата                    : Нет
Параметр GMC формата                     : Без точки перехода
Параметр матрицы формата                 : Default (H.263)
Идентификатор кодека                     : XVID
Идентификатор кодека/Подсказка           : XviD
Продолжительность                        : 1 ч. 35 м.
Битрейт                                  : 345 Кбит/сек
Ширина                                   : 320 пикселей
Высота                                   : 174 пикселя
Соотношение сторон                       : 1,85:1
Частота кадров                           : 23,976 кадра/сек
Цветовое пространство                    : YUV
Субдискретизация насыщенности            : 4:2:0
Битовая глубина                          : 8 бит
Тип развёртки                            : Прогрессивная
Метод сжатия                             : С потерями
Бит/(Пиксели*Кадры)                      : 0.259
Размер потока                            : 236 Мбайт (77%)
Библиотека кодирования                   : XviD 1.2.1 (UTC 2008-12-04)

Аудио
Идентификатор                            : 1
Формат                                   : MPEG Audio
Версия формата                           : Version 1
Профиль формата                          : Layer 3
Идентификатор кодека                     : 55
Идентификатор кодека/Подсказка           : MP3
Продолжительность                        : 1 ч. 35 м.
Вид битрейта                             : Постоянный
Битрейт                                  : 32,0 Кбит/сек
Каналы                                   : 2 канала
Частота                                  : 48,0 КГц
Метод сжатия                             : С потерями
Размер потока                            : 62,2 Мбайт (20%)
Выравнивание                             : Соединение по промежуткам
Продолжительность промежутка             : 24  мс. (0,58 видеокадр)
Время предзагрузки промежутка            : 177  мс.
Библиотека кодирования                   : LAME3.98.4

Скриншоты:



Время раздачи: 24/7 (круглосуточно) (раздаю до 10.07.2016) (до появления первых 3-5 скачавших)
 
Не забывайте говорить Спасибо. Не уходите с раздачи!   
Торрент: Зарегистрирован [23 июн 2016, 04:12] Для скачивания .torrent
необходима регистрация
Или скачать с помощью
MediaGet
Статус:
Проверен
 
.torrent скачан: 0 раз
Хэш: 76904d398f27f3db79efb7e11963bdc1d49906b1
Размер: 307.05 МБ (321 965 610 байт)
Стать Автором раздачи
 
 
Раздал: 100 ГБ
Скачал: 0 байт
Ратио: Seed.
Сообщения: 94053
Зарегистрирован: 09 апр 2015, 22:31


  • Похожие торренты
    Ответы
    Просмотры
    Последнее сообщение

Вернуться в Видео для мобильных устройств

Ресурс не предоставляет электронные версии произведений, а занимается лишь коллекционированием и каталогизацией ссылок, присылаемых и публикуемых на форуме нашими читателями. Если вы являетесь правообладателем какого-либо представленного материала и не желаете чтобы ссылка на него находилась в нашем каталоге, свяжитесь с нами и мы незамедлительно удалим её. Файлы для обмена на трекере предоставлены пользователями сайта, и администрация не несёт ответственности за их содержание. Просьба не заливать файлы, защищенные авторскими правами, а также файлы нелегального содержания!
cron