Казино / Casino (1995) BDRip [H.264] [MP4|960x408]

 
 Статистика раздачи 
Размер: 3.05 ГБ   |  Зарегистрирован: 19 июн 2016, 18:49   |   .torrent скачан: 0 раз
Сидеров: 1  [ 0 байт/сек ]     Личеров: 1  [ 0 байт/сек ]  
  

Казино / Casino (1995) BDRip [H.264] [MP4|960x408]

Сообщение explosiveone » 19 июн 2016, 18:49

Казино / Casino (1995) BDRip
«Риск. Власть. Искушение»

Производство: США, Франция / Universal Pictures
Жанр: Драма, Криминал, Биография

Режиссер: Мартин Скорсезе
Продюсер: Барбара Де Фина, Джозеф П. Рейди
Актеры: Роберт Де Ниро, Шэрон Стоун, Джо Пеши, Джеймс Вудс, Фрэнк Винсент, Паскуале Кайано, Кевин Поллак, Дон Риклз, Винни Велла, Алан Кинг, Дик Смотерз, Джозеф Ригано, Джон Блум, Мелисса Профет, Билл Эллисон, Джин Руффини, Доминик Греко, Эрика Фон Таген, Катрин Скорсезе

Описание:
Никто не может сравниться с Сэмом Ротстином. Никто не умеет зарабатывать деньги, как он. Никто не умеет работать так самоотверженно и аккуратно, как трудяга Сэм. За свои неоспоримые достоинства Ротстин получил кличку «Ас». И именно поэтому боссы мафии решили отправить Асса заправлять огромным шикарным казино в Лас-Вегасе. А чтобы Сэму никто не мешал работать, мафиози отправили вслед за Ассом друга детства Ротстина - Никки Санторо, отпетого бандита и безжалостного головореза.
В Лас-Вегасе Ас как всегда с блеском выполнял свою работу: Казино процветало, водопад денег беспрестанно лился в карманы довольных гангстеров-покровителей. Городские заправилы находились на довольствии у мафии, полицейские и суды были куплены, и, казалось ничто не может омрачить жизнь Асса. Но Господь распорядился иначе. Несокрушимой империи Сэма было суждено утонуть в трагедии и крови.


Возраст: 16+ (зрителям, достигшим 16 лет.)
Рейтинг MPAA: R (лицам до 17 лет обязательно присутствие взрослого)
Награды и номинации

Релиз от: NNMCLUB
Продолжительность: 02:58:20
Качество видео: BDRip
Перевод: Профессиональный (Лицензия BD CEE, многоголосый, закадровый)

Видео: AVC/H.264 (High@L3.1), 960x408 (2,35:1), ~1800 Кбит/сек. 23,976 Кадр/сек.
Аудио 1: AAC LC, 2.0, 160 Кбит/сек - Русский (DVO, Супербит (Лицензия BD CEE) )
Аудио 2: AAC LC, 2.0, 160 Кбит/сек - Русский (MVO, РЕН ТВ / Культура)
Аудио 3: AAC LC, 2.0, 160 Кбит/сек - Русский (MVO, ОРТ)
Аудио 4: AAC LC, 2.0, 160 Кбит/сек - Английский (Оригинальный)
Код:
Код: Выделить всё
General
Complete name               : D:\Казино.BDRip.1995.NNMCLUB.mp4
Format                      : MPEG-4
Format profile              : Base Media
Codec ID                    : isom (isom/avc1/iso6)
File size                   : 3.05 GiB
Duration                    : 2h 58mn
Overall bit rate mode       : Variable
Overall bit rate            : 2 449 Kbps
Encoded date                : UTC 2016-06-19 14:37:54
Tagged date                 : UTC 2016-06-19 14:37:54

Video
ID                          : 1
Format                      : AVC
Format/Info                 : Advanced Video Codec
Format profile              :
Format settings, CABAC      : Yes
Format settings, ReFrames   : 8 frames
Codec ID                    : avc1
Codec ID/Info               : Advanced Video Coding
Duration                    : 2h 58mn
Bit rate                    : 1 800 Kbps
Maximum bit rate            : 3 860 Kbps
Width                       : 960 pixels
Height                      : 408 pixels
Display aspect ratio        : 2.35:1
Frame rate mode             : Constant
Frame rate                  : 23.976 (24000/1001) fps
Color space                 : YUV
Chroma subsampling          : 4:2:0
Bit depth                   : 8 bits
Scan type                   : Progressive
Bits/(Pixel*Frame)          : 0.192
Stream size                 : 2.24 GiB (73%)
Title                       : Casino
Writing library             : x264 core 148 r2638 7599210
Encoding settings           : cabac=1 / ref=8 / deblock=1:-1:-1 / analyse=0x3:0x133 / me=umh / subme=11 / psy=1 / psy_rd=1.00:0.15 / mixed_ref=1 / me_range=48 / chroma_me=1 / trellis=2 / 8x8dct=1 / cqm=0 / deadzone=21,11 / fast_pskip=0 / chroma_qp_offset=-3 / threads=12 / lookahead_threads=2 / sliced_threads=0 / nr=0 / decimate=1 / interlaced=0 / bluray_compat=0 / constrained_intra=0 / bframes=9 / b_pyramid=2 / b_adapt=2 / b_bias=0 / direct=3 / weightb=1 / open_gop=0 / weightp=2 / keyint=240 / keyint_min=23 / scenecut=40 / intra_refresh=0 / rc_lookahead=60 / rc=2pass / mbtree=0 / bitrate=1800 / ratetol=1.0 / qcomp=0.60 / qpmin=0 / qpmax=69 / qpstep=4 / cplxblur=20.0 / qblur=0.5 / vbv_maxrate=17500 / vbv_bufsize=17500 / nal_hrd=none / filler=0 / ip_ratio=1.40 / pb_ratio=1.30 / aq=1:1.00
Encoded date                : UTC 2016-06-19 14:37:54
Tagged date                 : UTC 2016-06-19 14:40:22

Audio #1
ID                          : 2
Format                      : AAC
Format/Info                 : Advanced Audio Codec
Format profile              : LC
Codec ID                    : 40
Duration                    : 2h 58mn
Source duration             : 2h 58mn
Bit rate mode               : Variable
Bit rate                    : 160 Kbps
Maximum bit rate            : 171 Kbps
Channel(s)                  : 2 channels
Channel positions           : Front: L R
Sampling rate               : 48.0 KHz
Frame rate                  : 46.875 fps (1024 spf)
Compression mode            : Lossy
Stream size                 : 204 MiB (7%)
Source stream size          : 204 MiB (7%)
Title                       : BD CEE, DVO, SUPERBIT
Language                    : Russian
Encoded date                : UTC 2016-06-19 14:39:07
Tagged date                 : UTC 2016-06-19 14:40:22

Audio #2
ID                          : 3
Format                      : AAC
Format/Info                 : Advanced Audio Codec
Format profile              : LC
Codec ID                    : 40
Duration                    : 2h 58mn
Source duration             : 2h 58mn
Bit rate mode               : Variable
Bit rate                    : 160 Kbps
Maximum bit rate            : 172 Kbps
Channel(s)                  : 2 channels
Channel positions           : Front: L R
Sampling rate               : 48.0 KHz
Frame rate                  : 46.875 fps (1024 spf)
Compression mode            : Lossy
Stream size                 : 204 MiB (7%)
Source stream size          : 204 MiB (7%)
Title                       : MVO, REN-TV
Language                    : Russian
Encoded date                : UTC 2016-06-19 14:39:25
Tagged date                 : UTC 2016-06-19 14:40:22

Audio #3
ID                          : 4
Format                      : AAC
Format/Info                 : Advanced Audio Codec
Format profile              : LC
Codec ID                    : 40
Duration                    : 2h 58mn
Source duration             : 2h 58mn
Bit rate mode               : Variable
Bit rate                    : 160 Kbps
Maximum bit rate            : 164 Kbps
Channel(s)                  : 2 channels
Channel positions           : Front: L R
Sampling rate               : 48.0 KHz
Frame rate                  : 46.875 fps (1024 spf)
Compression mode            : Lossy
Stream size                 : 204 MiB (7%)
Source stream size          : 204 MiB (7%)
Title                       : MVO, ORT
Language                    : Russian
Encoded date                : UTC 2016-06-19 14:39:43
Tagged date                 : UTC 2016-06-19 14:40:22

Audio #4
ID                          : 5
Format                      : AAC
Format/Info                 : Advanced Audio Codec
Format profile              : LC
Codec ID                    : 40
Duration                    : 2h 58mn
Source duration             : 2h 58mn
Bit rate mode               : Variable
Bit rate                    : 160 Kbps
Maximum bit rate            : 169 Kbps
Channel(s)                  : 2 channels
Channel positions           : Front: L R
Sampling rate               : 48.0 KHz
Frame rate                  : 46.875 fps (1024 spf)
Compression mode            : Lossy
Stream size                 : 204 MiB (7%)
Source stream size          : 204 MiB (7%)
Title                       : Original
Language                    : English
Encoded date                : UTC 2016-06-19 14:40:03
Tagged date                 : UTC 2016-06-19 14:40:22
Код:
Код: Выделить всё
x264 [info]: profile High, level 3.1
x264 [info]: frame I:1957  Avg QP:18.02  size: 57188
x264 [info]: frame P:53476 Avg QP:20.85  size: 18971
x264 [info]: frame B:201114 Avg QP:22.73  size:  6368
x264 [info]: consecutive B-frames:  1.7%  2.1%  5.7% 25.7% 14.5% 31.9%  6.5%  7.7%  2.0%  2.2%
x264 [info]: mb I  I16..4: 11.4% 66.0% 22.6%
x264 [info]: mb P  I16..4:  0.9% 11.7%  1.9%  P16..4: 31.3% 36.3% 11.2%  1.7%  0.2%    skip: 5.0%
x264 [info]: mb B  I16..4:  0.1%  1.0%  0.1%  B16..8: 39.7% 20.0%  3.2%  direct: 5.2%  skip:30.7%  L0:43.7% L1:45.5% BI:10.8%
x264 [info]: 8x8 transform intra:78.8% inter:61.4%
x264 [info]: direct mvs  spatial:98.9% temporal:1.1%
x264 [info]: coded y,uvDC,uvAC intra: 91.4% 81.0% 46.7% inter: 25.6% 19.2% 1.3%
x264 [info]: i16 v,h,dc,p: 29% 13% 13% 44%
x264 [info]: i8 v,h,dc,ddl,ddr,vr,hd,vl,hu: 12%  7%  8% 10% 14% 13% 13% 11% 12%
x264 [info]: i4 v,h,dc,ddl,ddr,vr,hd,vl,hu: 16%  8%  4%  8% 14% 14% 13% 11% 12%
x264 [info]: i8c dc,h,v,p: 34% 25% 20% 20%
x264 [info]: Weighted P-Frames: Y:8.6% UV:3.5%
x264 [info]: ref P L0: 48.8% 11.0% 16.9%  7.6%  5.6%  4.3%  3.4%  2.0%  0.2%  0.0%
x264 [info]: ref B L0: 71.8% 13.6%  6.9%  3.5%  2.4%  1.2%  0.5%
x264 [info]: ref B L1: 92.1%  7.9%
x264 [info]: kb/s:1799.69
Вся работа над релизом производилась стандартными и интегрируемыми средствами в MeGUI 2624.
Доступ к железу для кодирования предоставил Дядя Шарик.
Исходник видео Blu-ray.
Звук частично получен с других источников.
Выложены озвучки только с оригинальной лицензии и две по заказу телеканалов, прошу правильно понять, в данный раздел будет не совсем практично выкладывать все имеющиеся переводы этого фильма, их очень много.

Скриншоты:


Время раздачи: Круглосуточно, до первых 10-и скачавших.
 
Не забывайте говорить Спасибо. Не уходите с раздачи!   
Торрент: Зарегистрирован [19 июн 2016, 18:49] Для скачивания .torrent
необходима регистрация
Или скачать с помощью
MediaGet
Статус:
Проверен
 
.torrent скачан: 0 раз
Хэш: 1bce3769278647b41297271f9a87b63e6ead6e40
Размер: 3.05 ГБ (3 275 287 094 байт)
Стать Автором раздачи
 
 
Раздал: 100 ГБ
Скачал: 0 байт
Ратио: Seed.
Сообщения: 94127
Зарегистрирован: 09 апр 2015, 22:31


  • Похожие торренты
    Ответы
    Просмотры
    Последнее сообщение

Вернуться в Видео для мобильных устройств

Ресурс не предоставляет электронные версии произведений, а занимается лишь коллекционированием и каталогизацией ссылок, присылаемых и публикуемых на форуме нашими читателями. Если вы являетесь правообладателем какого-либо представленного материала и не желаете чтобы ссылка на него находилась в нашем каталоге, свяжитесь с нами и мы незамедлительно удалим её. Файлы для обмена на трекере предоставлены пользователями сайта, и администрация не несёт ответственности за их содержание. Просьба не заливать файлы, защищенные авторскими правами, а также файлы нелегального содержания!
cron