EXперименты. Вездеходы (3 серии из 3) [2013, Документальный, HDTV 1080i]

 
 Статистика раздачи 
Размер: 4.23 ГБ   |  Зарегистрирован: 13 июн 2016, 20:49   |   .torrent скачан: 0 раз
Сидеров: 2  [ 0 байт/сек ]     Личеров: 0  [ 0 байт/сек ]  
  

EXперименты. Вездеходы (3 серии из 3) [2013, Документальный, HDTV 1080i]

Сообщение aLaVodka » 13 июн 2016, 20:49

EXперименты. Вездеходы (3 серии)

Год выпуска: 2013
Страна: Россия
Жанр: Документальный
Продолжительность: 3 x 26 минут
Перевод: Не требуется
Описание: Уникальные машины, способные пройти, проехать, пролететь и проплыть там, где безнадежно застрянут обычные легковые автомобили. Они разнообразны, потому что однообразного бездорожья не существует. Ландшафты земли – это великое множество неповторимостей. Но, помимо изобретенных человеком схем и разновидностей вездеходов, существуют и весьма неочевидные всепроходящие машины.

Доп. информация: IPTV Remux (запись потока без перекодирования)

Тип релиза: HDTV 1080i
Контейнер: TS

Видео: AVC H.264, 1920x1080i (16:9), 25 fps, 7175 kbps , 0.138 bits/pixel
Аудио: MPEG Audio, 2 channels, 192 kbps, 48KHz
Код: Выделить всё
General
ID                                       : 1 (0x1)
Complete name                            : EXперименты. Вездеходы\EXперименты. Вездеходы - Фильм 1.ts
Format                                   : MPEG-TS
File size                                : 1.43 GiB
Duration                                 : 26mn 26s
Overall bit rate mode                    : Variable
Overall bit rate                         : 7 752 Kbps

Video
ID                                       : 1012 (0x3F4)
Menu ID                                  : 1 (0x1)
Format                                   : AVC
Format/Info                              : Advanced Video Codec
Format profile                           : High@L4.0
Format settings, CABAC                   : Yes
Format settings, ReFrames                : 4 frames
Codec ID                                 : 27
Duration                                 : 26mn 26s
Bit rate                                 : 7 175 Kbps
Width                                    : 1 920 pixels
Height                                   : 1 080 pixels
Display aspect ratio                     : 16:9
Frame rate                               : 25.000 fps
Color space                              : YUV
Chroma subsampling                       : 4:2:0
Bit depth                                : 8 bits
Scan type                                : MBAFF
Bits/(Pixel*Frame)                       : 0.138
Stream size                              : 1.33 GiB (93%)

Audio
ID                                       : 1102 (0x44E)
Menu ID                                  : 1 (0x1)
Format                                   : MPEG Audio
Format version                           : Version 1
Format profile                           : Layer 2
Codec ID                                 : 3
Duration                                 : 26mn 26s
Bit rate mode                            : Constant
Bit rate                                 : 192 Kbps
Channel(s)                               : 2 channels
Sampling rate                            : 48.0 KHz
Compression mode                         : Lossy
Stream size                              : 36.3 MiB (2%)
Language                                 : English
 
Не забывайте говорить Спасибо. Не уходите с раздачи!   
Торрент: Зарегистрирован [13 июн 2016, 20:49] Для скачивания .torrent
необходима регистрация
Или скачать с помощью
MediaGet
Статус:
Проверен
 
.torrent скачан: 0 раз
Хэш: 9cfc3dbcb1fb331b5357b53fe6bdcd551427a634
Размер: 4.23 ГБ (4 538 052 100 байт)
Стать Автором раздачи
 
 
Раздал: 100 ГБ
Скачал: 0 байт
Ратио: Seed.
Сообщения: 189176
Зарегистрирован: 09 апр 2015, 20:00


  • Похожие торренты
    Ответы
    Просмотры
    Последнее сообщение

Вернуться в Естествознание, наука и техника (HD Video)

Ресурс не предоставляет электронные версии произведений, а занимается лишь коллекционированием и каталогизацией ссылок, присылаемых и публикуемых на форуме нашими читателями. Если вы являетесь правообладателем какого-либо представленного материала и не желаете чтобы ссылка на него находилась в нашем каталоге, свяжитесь с нами и мы незамедлительно удалим её. Файлы для обмена на трекере предоставлены пользователями сайта, и администрация не несёт ответственности за их содержание. Просьба не заливать файлы, защищенные авторскими правами, а также файлы нелегального содержания!
cron