Большой скачок (Часть 2 - серии 11-25) [2013-2015, Документальный, HDTV 1080i]

 
 Статистика раздачи 
Размер: 18 ГБ   |  Зарегистрирован: 13 июн 2016, 13:55   |   .torrent скачан: 0 раз
Сидеров: 2  [ 0 байт/сек ]     Личеров: 1  [ 0 байт/сек ]  
  

Большой скачок (Часть 2 - серии 11-25) [2013-2015, Документальный, HDTV 1080i]

Сообщение aLaVodka » 13 июн 2016, 13:55

Большой скачок (Часть 2 - серии 11-25)

Год выпуска: 2013-2015
Страна: Россия
Жанр: Документальный
Продолжительность: 15 х 26 минут
Перевод: Не требуется
Описание: Линейка научно-популярных фильмов, посвященных достижениям российских ученых, инженеров и изобретателей. В каждой программе прослеживается развитие той или иной области науки и техники – "большой скачок", который произошел за последнее время.

Список серий:
11. Большой скачок. Автопилоты
12. Большой скачок. Бумага. Сила хрупкости
13. Большой скачок. Как победить грусть
14. Большой скачок. Клей. Мёртвая хватка
15. Большой скачок. Лингвокриминалистика
16. Большой скачок. Соцсети
17. Большой скачок. Гравитация
18. Большой скачок. Живое море
19. Большой скачок. Игры поколений
20. Большой скачок. Иммунитет. Поразительный защитник
21. Большой скачок. Лифт на Луну
22. Большой скачок. Мобильные лаборатории
23. Большой скачок. Таблетки
24. Большой скачок. Тайная жизнь клетки
25. Большой скачок. Хроническая усталость

Доп. информация: IPTV Remux (запись потока без перекодирования)

Тип релиза: HDTV 1080i
Контейнер: TS

Видео: AVC H.264, 1920x1080i (16:9), 25 fps, 6552 kbps , 0.126 bits/pixel
Аудио: MPEG Audio, 2 channels, 192 kbps, 48KHz
Код: Выделить всё
General
ID                                       : 1 (0x1)
Complete name                            : Большой скачок\Большой скачок. Автопилоты.ts
Format                                   : MPEG-TS
File size                                : 1.28 GiB
Duration                                 : 25mn 48s
Overall bit rate mode                    : Variable
Overall bit rate                         : 7 097 Kbps

Video
ID                                       : 1012 (0x3F4)
Menu ID                                  : 1 (0x1)
Format                                   : AVC
Format/Info                              : Advanced Video Codec
Format profile                           : High@L4.0
Format settings, CABAC                   : Yes
Format settings, ReFrames                : 4 frames
Codec ID                                 : 27
Duration                                 : 25mn 48s
Bit rate                                 : 6 552 Kbps
Width                                    : 1 920 pixels
Height                                   : 1 080 pixels
Display aspect ratio                     : 16:9
Frame rate                               : 25.000 fps
Color space                              : YUV
Chroma subsampling                       : 4:2:0
Bit depth                                : 8 bits
Scan type                                : MBAFF
Bits/(Pixel*Frame)                       : 0.126
Stream size                              : 1.18 GiB (92%)

Audio
ID                                       : 1102 (0x44E)
Menu ID                                  : 1 (0x1)
Format                                   : MPEG Audio
Format version                           : Version 1
Format profile                           : Layer 2
Mode                                     : Joint stereo
Mode extension                           : Intensity Stereo + MS Stereo
Codec ID                                 : 3
Duration                                 : 25mn 48s
Bit rate mode                            : Constant
Bit rate                                 : 192 Kbps
Channel(s)                               : 2 channels
Sampling rate                            : 48.0 KHz
Compression mode                         : Lossy
Stream size                              : 35.5 MiB (3%)
Language                                 : English
 
Не забывайте говорить Спасибо. Не уходите с раздачи!   
Торрент: Зарегистрирован [13 июн 2016, 13:55] Для скачивания .torrent
необходима регистрация
Или скачать с помощью
MediaGet
Статус:
Проверен
 
.torrent скачан: 0 раз
Хэш: 4ddf48fe8ee68767571a00108e1b51b8d2f91461
Размер: 18 ГБ (19 328 247 476 байт)
Стать Автором раздачи
 
 
Раздал: 100 ГБ
Скачал: 0 байт
Ратио: Seed.
Сообщения: 188762
Зарегистрирован: 09 апр 2015, 20:00


  • Похожие торренты
    Ответы
    Просмотры
    Последнее сообщение

Вернуться в Естествознание, наука и техника (HD Video)

Ресурс не предоставляет электронные версии произведений, а занимается лишь коллекционированием и каталогизацией ссылок, присылаемых и публикуемых на форуме нашими читателями. Если вы являетесь правообладателем какого-либо представленного материала и не желаете чтобы ссылка на него находилась в нашем каталоге, свяжитесь с нами и мы незамедлительно удалим её. Файлы для обмена на трекере предоставлены пользователями сайта, и администрация не несёт ответственности за их содержание. Просьба не заливать файлы, защищенные авторскими правами, а также файлы нелегального содержания!
cron