VA - Millenium Melody 6 (2016) WEBRip

 
 Статистика раздачи 
Размер: 2.96 ГБ   |  Зарегистрирован: 12 июн 2016, 04:42   |   .torrent скачан: 0 раз
Сидеров: 1  [ 0 байт/сек ]     Личеров: 0  [ 0 байт/сек ]  
  

VA - Millenium Melody 6 (2016) WEBRip

Сообщение explosiveone » 12 июн 2016, 04:42

VA - Millenium Melody 6 (2016) WEBRip

Производство: Россия
Жанр: Рор
Описание:

Сборник популярных клипов

Треклист:

01 Lana Del Rey - High By The Beach
02 Taylor Swift - Style
03 ZHU - Faded
04 Fly Project feat. Misha - Jolie
05 Iyeoka - Simply Falling (Dj Antonio Remix
06 Bravve – Never Let It Go
07 Calvin Harris & Disciples - How Deep Is Your Love
08 Cheat Codes x Kris Kross Amsterdam - Sex
09 Deepcentral feat. Eleftheria Eleftheroiu - Raindrops
10 Gorgon City - All Four Walls ft. Vaults
11 Kygo - Stay ft. Maty Noyes
12 Fly Project - Goodbye
13 Mike Posner - I Took A Pill In Ibiza (Seeb Remix)
14 Margaret Berger - Will You Remember Me
15 SIA - Chandelier
16 Coldplay - Up & Up
17 Swanky Tunes feat. Raign - Fix me
18 The Chainsmokers - Don t Let Me Down ft. Daya
19 Felix Jaehn ft. Polina - Book Of Love
20 Smash feat. Ridley - Lovers 2 Lovers
21 Sore - Different
22 Michel Telo - Ai Se Eu Te Pego
23 Ariana Grande, The Weeknd - Love Me Harder
24 INNA - Yalla
25 Antonia - Chica Loca

Продолжительность: 01:31:36
Качество видео: WEBRip

Видео: AVC/H.264, 1920x1080, 1280х720, ~~~7 016
Аудио: AAC, 2 ch, 144kbps, VBR
Код:
Код: Выделить всё
Общее
Уникальный идентификатор : 245987451184305988155933450289709598772 (0xB90F75B6A0D0386292743EF5A1AC4834)
Полное имя : D:\Millenium Melody 6\01 Lana Del Rey - High By The Beach.mkv
Формат : Matroska
Версия формата : Version 4 / Version 2
Размер файла : 120 Мбайт
Продолжительность : 4 м. 57 с.
Режим общего битрейта : Переменный
Общий поток : 3387 Кбит/сек
Дата кодирования : UTC 2016-06-05 18:20:29
Программа кодирования : mkvmerge v8.8.0 ('Wind at my back') 64bit
Библиотека кодирования : libebml v1.3.3 + libmatroska v1.4.4

Видео
Идентификатор : 1
Формат : AVC
Формат/Информация : Advanced Video Codec
Профиль формата : High@L4
Параметр CABAC формата : Да
Параметр ReFrames формата : 3 кадра
Идентификатор кодека : V_MPEG4/ISO/AVC
Продолжительность : 4 м. 57 с.
Битрейт : 2608 Кбит/сек
Ширина : 1920 пикселей
Высота : 1080 пикселей
Соотношение сторон : 16:9
Режим частоты кадров : Постоянный
Частота кадров : 23,976 кадра/сек
Цветовое пространство : YUV
Субдискретизация насыщенности : 4:2:0
Битовая глубина : 8 бит
Тип развёртки : Прогрессивная
Бит/(Пиксели*Кадры) : 0.052
Размер потока : 92,6 Мбайт (77%)
Default : Да
Forced : Нет

Аудио
Идентификатор : 2
Формат : FLAC
Формат/Информация : Free Lossless Audio Codec
Идентификатор кодека : A_FLAC
Продолжительность : 4 м. 57 с.
Вид битрейта : Переменный
Битрейт : 777 Кбит/сек
Каналы : 2 канала
Расположение каналов : Front: L R
Частота : 44,1 КГц
Частота кадров : 10,769 кадров/сек (4095 spf)
Битовая глубина : 16 бит
Размер потока : 27,6 Мбайт (23%)
Заголовок : RCDA gb.bruck
Библиотека кодирования : libFLAC 20080709 (UTC 2008-07-09)
Default : Да
Forced : Нет

Общее
Уникальный идентификатор : 234318119995215653751305470981363077829 (0xB0480743FC5C539D939F1639D0D212C5)
Полное имя : D:\Millenium Melody 6\02 Taylor Swift - Style.mkv
Формат : Matroska
Версия формата : Version 4 / Version 2
Размер файла : 243 Мбайт
Продолжительность : 3 м. 59 с.
Общий поток : 8492 Кбит/сек
Дата кодирования : UTC 2016-03-26 05:05:52
Программа кодирования : mkvmerge v8.8.0 ('Wind at my back') 64bit
Библиотека кодирования : libebml v1.3.3 + libmatroska v1.4.4

Видео
Идентификатор : 1
Формат : HEVC
Формат/Информация : High Efficiency Video Coding
Профиль формата : @Main
Идентификатор кодека : V_MPEGH/ISO/HEVC
Продолжительность : 3 м. 59 с.
Битрейт : 6954 Кбит/сек
Ширина : 1920 пикселей
Высота : 1080 пикселей
Соотношение сторон : 16:9
Режим частоты кадров : Постоянный
Частота кадров : 23,976 (23976/1000) кадра/сек
Цветовое пространство : YUV
Субдискретизация насыщенности : 4:2:0
Битовая глубина : 8 бит
Бит/(Пиксели*Кадры) : 0.140
Размер потока : 199 Мбайт (82%)
Язык : English
Default : Да
Forced : Нет
Цветовой диапазон : Full
Основные цвета : BT.709
Характеристики трансфера : BT.709
Коэффициенты матрицы : BT.709

Аудио
Идентификатор : 2
Формат : PCM
Идентификатор кодека : A_PCM/INT/LIT
Продолжительность : 3 м. 59 с.
Вид битрейта : Постоянный
Битрейт : 1536 Кбит/сек
Каналы : 2 канала
Частота : 48,0 КГц
Частота кадров : 32,004 кадра/сек (1500 spf)
Битовая глубина : 16 бит
Размер потока : 43,9 Мбайт (18%)
Default : Да
Forced : Нет

Общее
Полное имя : D:\Millenium Melody 6\03 ZHU - Faded.mp4
Формат : MPEG-4
Профиль формата : Base Media
Идентификатор кодека : isom (isom/iso2/avc1/mp41)
Размер файла : 63,3 Мбайт
Продолжительность : 4 м. 12 с.
Общий поток : 2106 Кбит/сек
Программа кодирования : Lavf55.19.102

Видео
Идентификатор : 1
Формат : AVC
Формат/Информация : Advanced Video Codec
Профиль формата : High@L4
Параметр CABAC формата : Да
Параметр ReFrames формата : 3 кадра
Идентификатор кодека : avc1
Идентификатор кодека/Информация : Advanced Video Coding
Продолжительность : 4 м. 12 с.
Битрейт : 1972 Кбит/сек
Ширина : 1920 пикселей
Высота : 1080 пикселей
Соотношение сторон : 16:9
Режим частоты кадров : Постоянный
Частота кадров : 29,970 (30000/1001) кадров/сек
Цветовое пространство : YUV
Субдискретизация насыщенности : 4:2:0
Битовая глубина : 8 бит
Тип развёртки : Прогрессивная
Бит/(Пиксели*Кадры) : 0.032
Размер потока : 59,3 Мбайт (94%)

Аудио
Идентификатор : 2
Формат : AAC
Формат/Информация : Advanced Audio Codec
Профиль формата : LC
Идентификатор кодека : 40
Продолжительность : 4 м. 12 с.
Вид битрейта : Постоянный
Битрейт : 126 Кбит/сек
Каналы : 2 канала
Расположение каналов : Front: L R
Частота : 44,1 КГц
Частота кадров : 43,066 кадра/сек (1024 spf)
Метод сжатия : С потерями
Размер потока : 3,78 Мбайт (6%)
Default : Да
Alternate group : 1

Общее
Уникальный идентификатор : 247015169762432334183991987835495471553 (0xB9D56426C0FAE5D59A9AF637D97359C1)
Полное имя : D:\Millenium Melody 6\04 Fly Project feat. Misha - Jolie.mkv
Формат : Matroska
Версия формата : Version 4 / Version 2
Размер файла : 188 Мбайт
Продолжительность : 3 м. 32 с.
Общий поток : 7435 Кбит/сек
Дата кодирования : UTC 2016-06-07 01:45:35
Программа кодирования : mkvmerge v8.8.0 ('Wind at my back') 64bit
Библиотека кодирования : libebml v1.3.3 + libmatroska v1.4.4

Видео
Идентификатор : 1
Формат : HEVC
Формат/Информация : High Efficiency Video Coding
Профиль формата : @High
Идентификатор кодека : V_MPEGH/ISO/HEVC
Продолжительность : 3 м. 32 с.
Битрейт : 7051 Кбит/сек
Ширина : 1920 пикселей
Высота : 1080 пикселей
Соотношение сторон : 2,40:1
Режим частоты кадров : Постоянный
Частота кадров : 25,000 кадров/сек
Цветовое пространство : YUV
Субдискретизация насыщенности : 4:2:0
Битовая глубина : 8 бит
Бит/(Пиксели*Кадры) : 0.136
Размер потока : 178 Мбайт (95%)
Язык : English
Default : Да
Forced : Нет
Цветовой диапазон : Full
Основные цвета : BT.709
Характеристики трансфера : BT.709
Коэффициенты матрицы : BT.709

Аудио
Идентификатор : 2
Формат : MPEG Audio
Версия формата : Version 1
Профиль формата : Layer 2
Идентификатор кодека : A_MPEG/L2
Идентификатор кодека/Подсказка : MP2
Продолжительность : 3 м. 32 с.
Вид битрейта : Постоянный
Битрейт : 384 Кбит/сек
Каналы : 2 канала
Частота : 48,0 КГц
Частота кадров : 41,667 кадра/сек (1152 spf)
Метод сжатия : С потерями
Размер потока : 9,71 Мбайт (5%)
Default : Да
Forced : Нет

Общее
Полное имя : D:\Millenium Melody 6\05 Iyeoka - Simply Falling (Dj Antonio Remix).mp4
Формат : MPEG-4
Профиль формата : Base Media / Version 2
Идентификатор кодека : mp42 (isom/mp42)
Размер файла : 44,3 Мбайт
Продолжительность : 3 м. 16 с.
Режим общего битрейта : Переменный
Общий поток : 1889 Кбит/сек
Дата кодирования : UTC 2015-10-29 07:44:54
Дата пометки : UTC 2015-10-29 07:44:54
gsst : 0
gstd : 196950
gssd : BADC2922A
gshh : r10---sn-n8v7zn7y.googlevideo.com

Видео
Идентификатор : 1
Формат : AVC
Формат/Информация : Advanced Video Codec
Профиль формата :
Параметр CABAC формата : Да
Параметр ReFrames формата : 1 кадр
Идентификатор кодека : avc1
Идентификатор кодека/Информация : Advanced Video Coding
Продолжительность : 3 м. 16 с.
Битрейт : 1695 Кбит/сек
Максимальный битрейт : 2966 Кбит/сек
Ширина : 1280 пикселей
Высота : 720 пикселей
Соотношение сторон : 16:9
Режим частоты кадров : Постоянный
Частота кадров : 23,976 (24000/1001) кадра/сек
Цветовое пространство : YUV
Субдискретизация насыщенности : 4:2:0
Битовая глубина : 8 бит
Тип развёртки : Прогрессивная
Бит/(Пиксели*Кадры) : 0.077
Размер потока : 39,8 Мбайт (90%)
Дата пометки : UTC 2015-10-29 07:44:55

Аудио
Идентификатор : 2
Формат : AAC
Формат/Информация : Advanced Audio Codec
Профиль формата : LC
Идентификатор кодека : 40
Продолжительность : 3 м. 16 с.
Вид битрейта : Переменный
Битрейт : 192 Кбит/сек
Максимальный битрейт : 203 Кбит/сек
Каналы : 2 канала
Расположение каналов : Front: L R
Частота : 44,1 КГц
Частота кадров : 43,066 кадра/сек (1024 spf)
Метод сжатия : С потерями
Размер потока : 4,51 Мбайт (10%)
Заголовок : IsoMedia File Produced by Google, 5-11-2011
Язык : English
Дата кодирования : UTC 2015-10-29 07:44:55
Дата пометки : UTC 2015-10-29 07:44:55

Общее
Полное имя : D:\Millenium Melody 6\06 Bravve – Never Let It Go.mp4
Формат : MPEG-4
Профиль формата : Base Media / Version 2
Идентификатор кодека : mp42 (mp42/mp41)
Размер файла : 186 Мбайт
Продолжительность : 3 м. 29 с.
Режим общего битрейта : Переменный
Общий поток : 7457 Кбит/сек
Дата кодирования : UTC 2016-06-06 07:01:20
Дата пометки : UTC 2016-06-06 07:01:23
©TIM : 00:00:00:00
©TSC : 25
©TSZ : 1

Видео
Идентификатор : 1
Формат : HEVC
Формат/Информация : High Efficiency Video Coding
Профиль формата : @High
Идентификатор кодека : hvc1
Идентификатор кодека/Информация : High Efficiency Video Coding
Продолжительность : 3 м. 29 с.
Битрейт : 7136 Кбит/сек
Ширина : 1920 пикселей
Высота : 1080 пикселей
Соотношение сторон : 16:9
Режим частоты кадров : Постоянный
Частота кадров : 25,000 кадров/сек
Цветовое пространство : YUV
Субдискретизация насыщенности : 4:2:0
Битовая глубина : 8 бит
Бит/(Пиксели*Кадры) : 0.138
Размер потока : 178 Мбайт (96%)
Язык : English
Дата кодирования : UTC 2016-06-06 07:01:20
Дата пометки : UTC 2016-06-06 07:01:20
Цветовой диапазон : Full
Основные цвета : BT.709
Характеристики трансфера : BT.709
Коэффициенты матрицы : BT.709

Аудио
Идентификатор : 2
Формат : AAC
Формат/Информация : Advanced Audio Codec
Профиль формата : LC
Идентификатор кодека : 40
Продолжительность : 3 м. 29 с.
Продолжительность оригинала : 3 м. 29 с.
Вид битрейта : Переменный
Битрейт : 317 Кбит/сек
Максимальный битрейт : 403 Кбит/сек
Каналы : 2 канала
Расположение каналов : Front: L R
Частота : 48,0 КГц
Частота кадров : 46,875 кадров/сек (1024 spf)
Метод сжатия : С потерями
Размер потока : 7,93 Мбайт (4%)
Размер потока оригинала : 7,93 Мбайт (4%)
Язык : English
Дата кодирования : UTC 2016-06-06 07:01:20
Дата пометки : UTC 2016-06-06 07:01:20

Общее
Полное имя : D:\Millenium Melody 6\07 Calvin Harris & Disciples - How Deep Is Your Love.mp4
Формат : MPEG-4
Профиль формата : Base Media
Идентификатор кодека : isom (isom/iso2/avc1/mp41)
Размер файла : 70,0 Мбайт
Продолжительность : 4 м. 20 с.
Общий поток : 2254 Кбит/сек
Программа кодирования : Lavf56.40.101

Видео
Идентификатор : 1
Формат : AVC
Формат/Информация : Advanced Video Codec
Профиль формата : High@L4
Параметр CABAC формата : Да
Параметр ReFrames формата : 3 кадра
Идентификатор кодека : avc1
Идентификатор кодека/Информация : Advanced Video Coding
Продолжительность : 4 м. 20 с.
Битрейт : 2123 Кбит/сек
Ширина : 1920 пикселей
Высота : 1080 пикселей
Соотношение сторон : 16:9
Режим частоты кадров : Переменный
Частота кадров : 23,976 (23976/1000) кадра/сек
Минимальная частота кадров : 23,974 кадра/сек
Максимальная частота кадров : 90000,000 кадров/сек
Цветовое пространство : YUV
Субдискретизация насыщенности : 4:2:0
Битовая глубина : 8 бит
Тип развёртки : Прогрессивная
Бит/(Пиксели*Кадры) : 0.043
Размер потока : 65,9 Мбайт (94%)
Цветовой диапазон : Limited
Основные цвета : BT.709
Характеристики трансфера : BT.709
Коэффициенты матрицы : BT.709

Аудио
Идентификатор : 2
Формат : AAC
Формат/Информация : Advanced Audio Codec
Профиль формата : LC
Идентификатор кодека : 40
Продолжительность : 4 м. 20 с.
Вид битрейта : Постоянный
Битрейт : 126 Кбит/сек
Каналы : 2 канала
Расположение каналов : Front: L R
Частота : 44,1 КГц
Частота кадров : 43,066 кадра/сек (1024 spf)
Метод сжатия : С потерями
Размер потока : 3,90 Мбайт (6%)
Default : Да
Alternate group : 1

Общее
Полное имя : D:\Millenium Melody 6\08 Cheat Codes x Kris Kross Amsterdam - Sex.mp4
Формат : MPEG-4
Профиль формата : Base Media / Version 2
Идентификатор кодека : mp42 (mp42/mp41/isom/avc1)
Размер файла : 94,0 Мбайт
Продолжительность : 4 м. 17 с.
Режим общего битрейта : Переменный
Общий поток : 3067 Кбит/сек
Дата кодирования : UTC 2016-02-23 23:15:08
Дата пометки : UTC 2016-02-23 23:15:08

Видео
Идентификатор : 1
Формат : AVC
Формат/Информация : Advanced Video Codec
Профиль формата : High@L4
Параметр CABAC формата : Да
Параметр ReFrames формата : 4 кадра
Идентификатор кодека : avc1
Идентификатор кодека/Информация : Advanced Video Coding
Продолжительность : 4 м. 17 с.
Битрейт : 2828 Кбит/сек
Ширина : 1744 пикселя
Высота : 1080 пикселей
Соотношение сторон : 16:10
Режим частоты кадров : Постоянный
Частота кадров : 23,976 (24000/1001) кадра/сек
Цветовое пространство : YUV
Субдискретизация насыщенности : 4:2:0
Битовая глубина : 8 бит
Тип развёртки : Прогрессивная
Бит/(Пиксели*Кадры) : 0.063
Размер потока : 86,7 Мбайт (92%)
Библиотека кодирования : x264 core 148 r11 a01e339
Настройки программы : cabac=1 / ref=4 / deblock=1:0:0 / analyse=0x3:0x113 / me=umh / subme=8 / psy=1 / psy_rd=1.00:0.00 / mixed_ref=1 / me_range=16 / chroma_me=1 / trellis=1 / 8x8dct=1 / cqm=0 / deadzone=21,11 / fast_pskip=1 / chroma_qp_offset=-2 / threads=34 / lookahead_threads=5 / sliced_threads=0 / nr=0 / decimate=1 / interlaced=0 / bluray_compat=0 / stitchable=1 / constrained_intra=0 / bframes=3 / b_pyramid=2 / b_adapt=2 / b_bias=0 / direct=3 / weightb=1 / open_gop=0 / weightp=2 / keyint=infinite / keyint_min=23 / scenecut=40 / intra_refresh=0 / rc_lookahead=50 / rc=crf / mbtree=1 / crf=20.0 / qcomp=0.60 / qpmin=5 / qpmax=69 / qpstep=4 / vbv_maxrate=4950 / vbv_bufsize=13500 / crf_max=0.0 / nal_hrd=none / filler=0 / ip_ratio=1.40 / aq=1:1.00
Дата кодирования : UTC 2016-02-23 23:15:08
Дата пометки : UTC 2016-02-23 23:15:08
Цветовой диапазон : Limited
Основные цвета : BT.709
Характеристики трансфера : BT.709
Коэффициенты матрицы : BT.709

Аудио
Идентификатор : 2
Формат : AAC
Формат/Информация : Advanced Audio Codec
Профиль формата : LC
Идентификатор кодека : 40
Продолжительность : 4 м. 17 с.
Вид битрейта : Переменный
Битрейт : 235 Кбит/сек
Каналы : 2 канала
Расположение каналов : Front: L R
Частота : 48,0 КГц
Частота кадров : 46,875 кадров/сек (1024 spf)
Метод сжатия : С потерями
Размер потока : 7,21 Мбайт (8%)
Дата кодирования : UTC 2016-02-23 23:15:08
Дата пометки : UTC 2016-02-23 23:15:08

Общее
Уникальный идентификатор : 184999354813956617715987707846338679176 (0x8B2D94680FBB8B529B6942FC32CE1188)
Полное имя : D:\Millenium Melody 6\09 Deepcentral feat. Eleftheria Eleftheroiu - Raindrops.mkv
Формат : Matroska
Версия формата : Version 4 / Version 2
Размер файла : 185 Мбайт
Продолжительность : 3 м. 41 с.
Общий поток : 7024 Кбит/сек
Дата кодирования : UTC 2016-06-07 01:48:17
Программа кодирования : mkvmerge v8.8.0 ('Wind at my back') 64bit
Библиотека кодирования : libebml v1.3.3 + libmatroska v1.4.4

Видео
Идентификатор : 1
Формат : HEVC
Формат/Информация : High Efficiency Video Coding
Профиль формата : Main@L5@High
Идентификатор кодека : V_MPEGH/ISO/HEVC
Продолжительность : 3 м. 41 с.
Битрейт : 6894 Кбит/сек
Ширина : 3840 пикселей
Высота : 2160 пикселей
Соотношение сторон : 16:9
Режим частоты кадров : Постоянный
Частота кадров : 25,000 кадров/сек
Цветовое пространство : YUV
Субдискретизация насыщенности : 4:2:0
Битовая глубина : 8 бит
Бит/(Пиксели*Кадры) : 0.033
Размер потока : 182 Мбайт (98%)
Язык : English
Default : Да
Forced : Нет
Цветовой диапазон : Full
Основные цвета : BT.709
Характеристики трансфера : BT.709
Коэффициенты матрицы : BT.709

Аудио
Идентификатор : 2
Формат : AAC
Формат/Информация : Advanced Audio Codec
Профиль формата : LC
Идентификатор кодека : A_AAC
Продолжительность : 3 м. 41 с.
Битрейт : 132 Кбит/сек
Каналы : 2 канала
Расположение каналов : Front: L R
Частота : 48,0 КГц
Частота кадров : 46,875 кадров/сек (1024 spf)
Метод сжатия : С потерями
Размер потока : 3,43 Мбайт (2%)
Default : Да
Forced : Нет

Общее
Полное имя : D:\Millenium Melody 6\10 Gorgon City - All Four Walls ft. Vaults.mp4
Формат : MPEG-4
Профиль формата : Base Media
Идентификатор кодека : isom (isom/iso2/avc1/mp41)
Размер файла : 45,7 Мбайт
Продолжительность : 3 м. 15 с.
Общий поток : 1962 Кбит/сек
Программа кодирования : Lavf56.40.101

Видео
Идентификатор : 1
Формат : AVC
Формат/Информация : Advanced Video Codec
Профиль формата : High@L4
Параметр CABAC формата : Да
Параметр ReFrames формата : 3 кадра
Идентификатор кодека : avc1
Идентификатор кодека/Информация : Advanced Video Coding
Продолжительность : 3 м. 15 с.
Duration_FirstFrame : -40 мс.
Битрейт : 1830 Кбит/сек
Ширина : 1920 пикселей
Высота : 1080 пикселей
Соотношение сторон : 16:9
Режим частоты кадров : Переменный
Частота кадров : 25,000 кадров/сек
Минимальная частота кадров : 25,000 кадров/сек
Максимальная частота кадров : 25,014 кадров/сек
Цветовое пространство : YUV
Субдискретизация насыщенности : 4:2:0
Битовая глубина : 8 бит
Тип развёртки : Прогрессивная
Бит/(Пиксели*Кадры) : 0.035
Размер потока : 42,6 Мбайт (93%)

Аудио
Идентификатор : 2
Формат : AAC
Формат/Информация : Advanced Audio Codec
Профиль формата : LC
Идентификатор кодека : 40
Продолжительность : 3 м. 15 с.
Вид битрейта : Постоянный
Битрейт : 126 Кбит/сек
Каналы : 2 канала
Расположение каналов : Front: L R
Частота : 44,1 КГц
Частота кадров : 43,066 кадра/сек (1024 spf)
Метод сжатия : С потерями
Размер потока : 2,92 Мбайт (6%)
Default : Да
Alternate group : 1

Общее
Полное имя : D:\Millenium Melody 6\11 Kygo - Stay ft. Maty Noyes.mp4
Формат : MPEG-4
Профиль формата : Base Media
Идентификатор кодека : isom (isom/iso2/avc1/mp41)
Размер файла : 65,0 Мбайт
Продолжительность : 4 м. 3 с.
Общий поток : 2239 Кбит/сек
Программа кодирования : Lavf56.40.101

Видео
Идентификатор : 1
Формат : AVC
Формат/Информация : Advanced Video Codec
Профиль формата : High@L4
Параметр CABAC формата : Да
Параметр ReFrames формата : 3 кадра
Идентификатор кодека : avc1
Идентификатор кодека/Информация : Advanced Video Coding
Продолжительность : 4 м. 3 с.
Битрейт : 2107 Кбит/сек
Ширина : 1920 пикселей
Высота : 1080 пикселей
Соотношение сторон : 16:9
Режим частоты кадров : Переменный
Частота кадров : 23,976 (23976/1000) кадра/сек
Минимальная частота кадров : 23,974 кадра/сек
Максимальная частота кадров : 90000,000 кадров/сек
Цветовое пространство : YUV
Субдискретизация насыщенности : 4:2:0
Битовая глубина : 8 бит
Тип развёртки : Прогрессивная
Бит/(Пиксели*Кадры) : 0.042
Размер потока : 61,2 Мбайт (94%)
Цветовой диапазон : Limited
Основные цвета : BT.709
Характеристики трансфера : BT.709
Коэффициенты матрицы : BT.709

Аудио
Идентификатор : 2
Формат : AAC
Формат/Информация : Advanced Audio Codec
Профиль формата : LC
Идентификатор кодека : 40
Продолжительность : 4 м. 3 с.
Вид битрейта : Постоянный
Битрейт : 126 Кбит/сек
Каналы : 2 канала
Расположение каналов : Front: L R
Частота : 44,1 КГц
Частота кадров : 43,066 кадра/сек (1024 spf)
Метод сжатия : С потерями
Размер потока : 3,65 Мбайт (6%)
Default : Да
Alternate group : 1

Общее
Уникальный идентификатор : 210809816516109755109269644879488817776 (0x9E987E6AFB6309AA894E85FBDDE31A70)
Полное имя : D:\Millenium Melody 6\12 Fly Project - Goodbye.mkv
Формат : Matroska
Версия формата : Version 4 / Version 2
Размер файла : 166 Мбайт
Продолжительность : 3 м. 9 с.
Общий поток : 7347 Кбит/сек
Дата кодирования : UTC 2016-06-07 01:44:22
Программа кодирования : mkvmerge v8.8.0 ('Wind at my back') 64bit
Библиотека кодирования : libebml v1.3.3 + libmatroska v1.4.4

Видео
Идентификатор : 1
Формат : HEVC
Формат/Информация : High Efficiency Video Coding
Профиль формата : @Main
Идентификатор кодека : V_MPEGH/ISO/HEVC
Продолжительность : 3 м. 9 с.
Битрейт : 7127 Кбит/сек
Ширина : 1920 пикселей
Высота : 1080 пикселей
Соотношение сторон : 2,40:1
Режим частоты кадров : Постоянный
Частота кадров : 25,000 кадров/сек
Цветовое пространство : YUV
Субдискретизация насыщенности : 4:2:0
Битовая глубина : 8 бит
Бит/(Пиксели*Кадры) : 0.137
Размер потока : 161 Мбайт (97%)
Язык : English
Default : Да
Forced : Нет
Цветовой диапазон : Full
Основные цвета : BT.709
Характеристики трансфера : BT.709
Коэффициенты матрицы : BT.709

Аудио
Идентификатор : 2
Формат : MPEG Audio
Версия формата : Version 1
Профиль формата : Layer 2
Идентификатор кодека : A_MPEG/L2
Идентификатор кодека/Подсказка : MP2
Продолжительность : 3 м. 9 с.
Вид битрейта : Постоянный
Битрейт : 224 Кбит/сек
Каналы : 2 канала
Частота : 48,0 КГц
Частота кадров : 41,667 кадра/сек (1152 spf)
Метод сжатия : С потерями
Задержка видео : 104 мс.
Размер потока : 5,06 Мбайт (3%)
Default : Да
Forced : Нет

Общее
Полное имя : D:\Millenium Melody 6\13 Mike Posner - I Took A Pill In Ibiza (Seeb Remix).mp4
Формат : MPEG-4
Профиль формата : Base Media
Идентификатор кодека : isom (isom/iso2/avc1/mp41)
Размер файла : 54,9 Мбайт
Продолжительность : 3 м. 56 с.
Общий поток : 1951 Кбит/сек
Программа кодирования : Lavf56.40.101

Видео
Идентификатор : 1
Формат : AVC
Формат/Информация : Advanced Video Codec
Профиль формата : High@L4
Параметр CABAC формата : Да
Параметр ReFrames формата : 3 кадра
Идентификатор кодека : avc1
Идентификатор кодека/Информация : Advanced Video Coding
Продолжительность : 3 м. 56 с.
Битрейт : 1819 Кбит/сек
Ширина : 1920 пикселей
Высота : 1080 пикселей
Соотношение сторон : 16:9
Режим частоты кадров : Переменный
Частота кадров : 23,976 (23976/1000) кадра/сек
Минимальная частота кадров : 23,974 кадра/сек
Максимальная частота кадров : 90000,000 кадров/сек
Цветовое пространство : YUV
Субдискретизация насыщенности : 4:2:0
Битовая глубина : 8 бит
Тип развёртки : Прогрессивная
Бит/(Пиксели*Кадры) : 0.037
Размер потока : 51,2 Мбайт (93%)
Цветовой диапазон : Limited
Основные цвета : BT.709
Характеристики трансфера : BT.709
Коэффициенты матрицы : BT.709

Аудио
Идентификатор : 2
Формат : AAC
Формат/Информация : Advanced Audio Codec
Профиль формата : LC
Идентификатор кодека : 40
Продолжительность : 3 м. 56 с.
Вид битрейта : Постоянный
Битрейт : 126 Кбит/сек
Каналы : 2 канала
Расположение каналов : Front: L R
Частота : 44,1 КГц
Частота кадров : 43,066 кадра/сек (1024 spf)
Метод сжатия : С потерями
Размер потока : 3,54 Мбайт (6%)
Default : Да
Alternate group : 1

Общее
Уникальный идентификатор : 188755517134183568743862178206684933706 (0x8E00FD81CA7979AB8A874B045BC5EE4A)
Полное имя : D:\Millenium Melody 6\14 Margaret Berger - Will You Remember Me.mkv
Формат : Matroska
Версия формата : Version 4 / Version 2
Размер файла : 92,5 Мбайт
Продолжительность : 3 м. 40 с.
Режим общего битрейта : Переменный
Общий поток : 3525 Кбит/сек
Дата кодирования : UTC 2016-06-05 18:22:17
Программа кодирования : mkvmerge v8.8.0 ('Wind at my back') 64bit
Библиотека кодирования : libebml v1.3.3 + libmatroska v1.4.4

Видео
Идентификатор : 1
Формат : AVC
Формат/Информация : Advanced Video Codec
Профиль формата :
Параметр CABAC формата : Да
Параметр ReFrames формата : 4 кадра
Идентификатор кодека : V_MPEG4/ISO/AVC
Продолжительность : 3 м. 40 с.
Битрейт : 2510 Кбит/сек
Ширина : 1280 пикселей
Высота : 720 пикселей
Соотношение сторон : 16:9
Режим частоты кадров : Постоянный
Частота кадров : 25,000 кадров/сек
Цветовое пространство : YUV
Субдискретизация насыщенности : 4:2:0
Битовая глубина : 8 бит
Тип развёртки : Прогрессивная
Бит/(Пиксели*Кадры) : 0.109
Размер потока : 65,8 Мбайт (71%)
Библиотека кодирования : Vimeo Encoder
Default : Да
Forced : Нет

Аудио
Идентификатор : 2
Формат : FLAC
Формат/Информация : Free Lossless Audio Codec
Идентификатор кодека : A_FLAC
Продолжительность : 3 м. 40 с.
Вид битрейта : Переменный
Битрейт : 1013 Кбит/сек
Каналы : 2 канала
Расположение каналов : Front: L R
Частота : 44,1 КГц
Частота кадров : 10,768 кадров/сек (4095 spf)
Битовая глубина : 16 бит
Размер потока : 26,6 Мбайт (29%)
Default : Нет
Forced : Нет

Общее
Уникальный идентификатор : 191296685729589544116480819380603546012 (0x8FEA66CABA0DE82C9C787D08204F699C)
Полное имя : D:\Millenium Melody 6\15 SIA - Chandelier.mkv
Формат : Matroska
Версия формата : Version 4 / Version 2
Размер файла : 227 Мбайт
Продолжительность : 3 м. 51 с.
Режим общего битрейта : Переменный
Общий поток : 8222 Кбит/сек
Дата кодирования : UTC 2016-06-06 14:56:15
Программа кодирования : mkvmerge v8.8.0 ('Wind at my back') 64bit
Библиотека кодирования : libebml v1.3.3 + libmatroska v1.4.4

Видео
Идентификатор : 1
Формат : AVC
Формат/Информация : Advanced Video Codec
Профиль формата :
Параметр CABAC формата : Да
Параметр ReFrames формата : 6 кадров
Идентификатор кодека : V_MPEG4/ISO/AVC
Продолжительность : 3 м. 51 с.
Битрейт : 7172 Кбит/сек
Ширина : 1920 пикселей
Высота : 806 пикселей
Соотношение сторон : 2,40:1
Режим частоты кадров : Постоянный
Частота кадров : 23,976 (24000/1001) кадра/сек
Цветовое пространство : YUV
Субдискретизация насыщенности : 4:2:0
Битовая глубина : 8 бит
Тип развёртки : Прогрессивная
Бит/(Пиксели*Кадры) : 0.193
Размер потока : 198 Мбайт (87%)
Библиотека кодирования : x264 core 148 r2694M 3b70645
Настройки программы : cabac=1 / ref=6 / deblock=1:-2:-2 / analyse=0x3:0x133 / me=tesa / subme=11 / psy=1 / psy_rd=1.05:0.10 / mixed_ref=1 / me_range=16 / chroma_me=1 / trellis=2 / 8x8dct=1 / cqm=0 / deadzone=21,11 / fast_pskip=0 / chroma_qp_offset=-3 / threads=9 / lookahead_threads=1 / sliced_threads=0 / nr=0 / decimate=1 / interlaced=0 / bluray_compat=0 / constrained_intra=0 / bframes=6 / b_pyramid=2 / b_adapt=2 / b_bias=0 / direct=3 / weightb=1 / open_gop=0 / weightp=2 / keyint=230 / keyint_min=23 / scenecut=40 / intra_refresh=0 / rc_lookahead=40 / rc=2pass / mbtree=1 / bitrate=7172 / ratetol=1.0 / qcomp=0.70 / qpmin=3 / qpmax=69 / qpstep=4 / cplxblur=20.0 / qblur=0.5 / vbv_maxrate=40000 / vbv_bufsize=30000 / nal_hrd=none / filler=0 / ip_ratio=1.40 / aq=2:1.00
Язык : English
Default : Да
Forced : Нет

Аудио
Идентификатор : 2
Формат : FLAC
Формат/Информация : Free Lossless Audio Codec
Идентификатор кодека : A_FLAC
Продолжительность : 3 м. 50 с.
Вид битрейта : Переменный
Битрейт : 1038 Кбит/сек
Каналы : 2 канала
Расположение каналов : Front: L R
Частота : 44,1 КГц
Частота кадров : 9,571 кадров/сек (4608 spf)
Битовая глубина : 16 бит
Размер потока : 28,5 Мбайт (13%)
Библиотека кодирования : libFLAC 1.2.1 (UTC 2007-09-17)
Default : Да
Forced : Нет

Общее
Уникальный идентификатор : 199944039525037862026967927304858697799 (0x966BD24036579866BB6BA783D2690047)
Полное имя : D:\Millenium Melody 6\16 Coldplay - Up & Up.mkv
Формат : Matroska
Версия формата : Version 4 / Version 2
Размер файла : 221 Мбайт
Продолжительность : 4 м. 10 с.
Общий поток : 7401 Кбит/сек
Дата кодирования : UTC 2016-06-07 01:49:48
Программа кодирования : mkvmerge v8.8.0 ('Wind at my back') 64bit
Библиотека кодирования : libebml v1.3.3 + libmatroska v1.4.4

Видео
Идентификатор : 1
Формат : HEVC
Формат/Информация : High Efficiency Video Coding
Профиль формата : @Main
Идентификатор кодека : V_MPEGH/ISO/HEVC
Продолжительность : 4 м. 10 с.
Битрейт : 7016 Кбит/сек
Ширина : 1920 пикселей
Высота : 1080 пикселей
Соотношение сторон : 16:9
Режим частоты кадров : Постоянный
Частота кадров : 25,000 кадров/сек
Цветовое пространство : YUV
Субдискретизация насыщенности : 4:2:0
Битовая глубина : 8 бит
Бит/(Пиксели*Кадры) : 0.135
Размер потока : 210 Мбайт (95%)
Язык : English
Default : Да
Forced : Нет
Цветовой диапазон : Full
Основные цвета : BT.709
Характеристики трансфера : BT.709
Коэффициенты матрицы : BT.709

Аудио
Идентификатор : 2
Формат : MPEG Audio
Версия формата : Version 1
Профиль формата : Layer 2
Идентификатор кодека : A_MPEG/L2
Идентификатор кодека/Подсказка : MP2
Продолжительность : 4 м. 10 с.
Вид битрейта : Постоянный
Битрейт : 384 Кбит/сек
Каналы : 2 канала
Частота : 48,0 КГц
Частота кадров : 41,667 кадра/сек (1152 spf)
Метод сжатия : С потерями
Размер потока : 11,5 Мбайт (5%)
Default : Да
Forced : Нет

Общее
Полное имя : D:\Millenium Melody 6\17 Swanky Tunes feat. Raign - Fix me.mp4
Формат : MPEG-4
Профиль формата : Base Media
Идентификатор кодека : isom (isom/iso2/avc1/mp41)
Размер файла : 50,1 Мбайт
Продолжительность : 3 м. 24 с.
Общий поток : 2054 Кбит/сек
Программа кодирования : Lavf55.19.102

Видео
Идентификатор : 1
Формат : AVC
Формат/Информация : Advanced Video Codec
Профиль формата : High@L4
Параметр CABAC формата : Да
Параметр ReFrames формата : 3 кадра
Идентификатор кодека : avc1
Идентификатор кодека/Информация : Advanced Video Coding
Продолжительность : 3 м. 24 с.
Битрейт : 1923 Кбит/сек
Ширина : 1920 пикселей
Высота : 1080 пикселей
Соотношение сторон : 16:9
Режим частоты кадров : Постоянный
Частота кадров : 25,000 кадров/сек
Цветовое пространство : YUV
Субдискретизация насыщенности : 4:2:0
Битовая глубина : 8 бит
Тип развёртки : Прогрессивная
Бит/(Пиксели*Кадры) : 0.037
Размер потока : 46,9 Мбайт (94%)

Аудио
Идентификатор : 2
Формат : AAC
Формат/Информация : Advanced Audio Codec
Профиль формата : LC
Идентификатор кодека : 40
Продолжительность : 3 м. 24 с.
Вид битрейта : Постоянный
Битрейт : 126 Кбит/сек
Каналы : 2 канала
Расположение каналов : Front: L R
Частота : 44,1 КГц
Частота кадров : 43,066 кадра/сек (1024 spf)
Метод сжатия : С потерями
Размер потока : 3,06 Мбайт (6%)
Default : Да
Alternate group : 1

Общее
Полное имя : D:\Millenium Melody 6\18 The Chainsmokers - Don t Let Me Down ft. Daya.mp4
Формат : MPEG-4
Профиль формата : Base Media
Идентификатор кодека : isom (isom/iso2/avc1/mp41)
Размер файла : 79,1 Мбайт
Продолжительность : 3 м. 37 с.
Общий поток : 3046 Кбит/сек
Программа кодирования : Lavf56.40.101

Видео
Идентификатор : 1
Формат : AVC
Формат/Информация : Advanced Video Codec
Профиль формата : High@L4
Параметр CABAC формата : Да
Параметр ReFrames формата : 3 кадра
Идентификатор кодека : avc1
Идентификатор кодека/Информация : Advanced Video Coding
Продолжительность : 3 м. 37 с.
Битрейт : 2915 Кбит/сек
Ширина : 1920 пикселей
Высота : 1080 пикселей
Соотношение сторон : 16:9
Режим частоты кадров : Переменный
Частота кадров : 23,976 (23976/1000) кадра/сек
Минимальная частота кадров : 23,974 кадра/сек
Максимальная частота кадров : 90000,000 кадров/сек
Цветовое пространство : YUV
Субдискретизация насыщенности : 4:2:0
Битовая глубина : 8 бит
Тип развёртки : Прогрессивная
Бит/(Пиксели*Кадры) : 0.059
Размер потока : 75,7 Мбайт (96%)
Цветовой диапазон : Limited
Основные цвета : BT.709
Характеристики трансфера : BT.709
Коэффициенты матрицы : BT.709

Аудио
Идентификатор : 2
Формат : AAC
Формат/Информация : Advanced Audio Codec
Профиль формата : LC
Идентификатор кодека : 40
Продолжительность : 3 м. 37 с.
Вид битрейта : Постоянный
Битрейт : 126 Кбит/сек
Каналы : 2 канала
Расположение каналов : Front: L R
Частота : 44,1 КГц
Частота кадров : 43,066 кадра/сек (1024 spf)
Метод сжатия : С потерями
Размер потока : 3,26 Мбайт (4%)
Default : Да
Alternate group : 1

Общее
Полное имя : D:\Millenium Melody 6\19 Felix Jaehn ft. Polina - Book Of Love .mp4
Формат : MPEG-4
Профиль формата : Base Media
Идентификатор кодека : isom (isom/iso2/avc1/mp41)
Размер файла : 52,4 Мбайт
Продолжительность : 3 м. 20 с.
Общий поток : 2197 Кбит/сек
Программа кодирования : Lavf55.19.102

Видео
Идентификатор : 1
Формат : AVC
Формат/Информация : Advanced Video Codec
Профиль формата : High@L4
Параметр CABAC формата : Да
Параметр ReFrames формата : 3 кадра
Идентификатор кодека : avc1
Идентификатор кодека/Информация : Advanced Video Coding
Продолжительность : 3 м. 20 с.
Битрейт : 2066 Кбит/сек
Ширина : 1920 пикселей
Высота : 1080 пикселей
Соотношение сторон : 16:9
Режим частоты кадров : Постоянный
Частота кадров : 25,000 кадров/сек
Цветовое пространство : YUV
Субдискретизация насыщенности : 4:2:0
Битовая глубина : 8 бит
Тип развёртки : Прогрессивная
Бит/(Пиксели*Кадры) : 0.040
Размер потока : 49,3 Мбайт (94%)

Аудио
Идентификатор : 2
Формат : AAC
Формат/Информация : Advanced Audio Codec
Профиль формата : LC
Идентификатор кодека : 40
Продолжительность : 3 м. 20 с.
Вид битрейта : Постоянный
Битрейт : 126 Кбит/сек
Каналы : 2 канала
Расположение каналов : Front: L R
Частота : 44,1 КГц
Частота кадров : 43,066 кадра/сек (1024 spf)
Метод сжатия : С потерями
Размер потока : 3,00 Мбайт (6%)
Default : Да
Alternate group : 1

Общее
Полное имя : D:\Millenium Melody 6\20 Smash feat. Ridley - Lovers 2 Lovers.mp4
Формат : MPEG-4
Профиль формата : Base Media
Идентификатор кодека : isom (isom/iso2/avc1/mp41)
Размер файла : 49,7 Мбайт
Продолжительность : 3 м. 12 с.
Общий поток : 2173 Кбит/сек
Программа кодирования : Lavf56.25.101

Видео
Идентификатор : 1
Формат : AVC
Формат/Информация : Advanced Video Codec
Профиль формата : High@L4
Параметр CABAC формата : Да
Параметр ReFrames формата : 3 кадра
Идентификатор кодека : avc1
Идентификатор кодека/Информация : Advanced Video Coding
Продолжительность : 3 м. 12 с.
Битрейт : 2042 Кбит/сек
Ширина : 1920 пикселей
Высота : 1080 пикселей
Соотношение сторон : 16:9
Режим частоты кадров : Постоянный
Частота кадров : 25,000 кадров/сек
Цветовое пространство : YUV
Субдискретизация насыщенности : 4:2:0
Битовая глубина : 8 бит
Тип развёртки : Прогрессивная
Бит/(Пиксели*Кадры) : 0.039
Размер потока : 46,7 Мбайт (94%)
Цветовой диапазон : Limited
Основные цвета : BT.709
Характеристики трансфера : BT.709
Коэффициенты матрицы : BT.709

Аудио
Идентификатор : 2
Формат : AAC
Формат/Информация : Advanced Audio Codec
Профиль формата : LC
Идентификатор кодека : 40
Продолжительность : 3 м. 12 с.
Вид битрейта : Постоянный
Битрейт : 126 Кбит/сек
Каналы : 2 канала
Расположение каналов : Front: L R
Частота : 44,1 КГц
Частота кадров : 43,066 кадра/сек (1024 spf)
Метод сжатия : С потерями
Размер потока : 2,88 Мбайт (6%)
Default : Да
Alternate group : 1

Общее
Уникальный идентификатор : 210269776762115313616754943962775384323 (0x9E307C66FEB2EDE4ACF1477EA3CD7103)
Полное имя : D:\Millenium Melody 6\21 Sore - Different.mkv
Формат : Matroska
Версия формата : Version 4 / Version 2
Размер файла : 169 Мбайт
Продолжительность : 3 м. 14 с.
Общий поток : 7301 Кбит/сек
Дата кодирования : UTC 2016-06-07 01:51:21
Программа кодирования : mkvmerge v8.8.0 ('Wind at my back') 64bit
Библиотека кодирования : libebml v1.3.3 + libmatroska v1.4.4

Видео
Идентификатор : 1
Формат : HEVC
Формат/Информация : High Efficiency Video Coding
Профиль формата : @Main
Идентификатор кодека : V_MPEGH/ISO/HEVC
Продолжительность : 3 м. 14 с.
Битрейт : 6980 Кбит/сек
Ширина : 1920 пикселей
Высота : 1080 пикселей
Соотношение сторон : 16:9
Режим частоты кадров : Постоянный
Частота кадров : 25,000 кадров/сек
Цветовое пространство : YUV
Субдискретизация насыщенности : 4:2:0
Битовая глубина : 8 бит
Бит/(Пиксели*Кадры) : 0.135
Размер потока : 161 Мбайт (96%)
Язык : English
Default : Да
Forced : Нет
Цветовой диапазон : Full
Основные цвета : BT.709
Характеристики трансфера : BT.709
Коэффициенты матрицы : BT.709

Аудио
Идентификатор : 2
Формат : MPEG Audio
Версия формата : Version 1
Профиль формата : Layer 2
Идентификатор кодека : A_MPEG/L2
Идентификатор кодека/Подсказка : MP2
Продолжительность : 3 м. 14 с.
Вид битрейта : Постоянный
Битрейт : 320 Кбит/сек
Каналы : 2 канала
Частота : 44,1 КГц
Частота кадров : 38,281 кадров/сек (1152 spf)
Метод сжатия : С потерями
Размер потока : 7,40 Мбайт (4%)
Default : Да
Forced : Нет

Общее
Уникальный идентификатор : 218886913212636220267520086269482823008 (0xA4AC1607F79DD5E28AF1F49623E0ED60)
Полное имя : D:\Millenium Melody 6\22 Michel Telo - Ai Se Eu Te Pego.mkv
Формат : Matroska
Версия формата : Version 4 / Version 2
Размер файла : 160 Мбайт
Продолжительность : 2 м. 45 с.
Режим общего битрейта : Переменный
Общий поток : 8135 Кбит/сек
Дата кодирования : UTC 2016-06-07 01:52:34
Программа кодирования : mkvmerge v8.8.0 ('Wind at my back') 64bit
Библиотека кодирования : libebml v1.3.3 + libmatroska v1.4.4

Видео
Идентификатор : 1
Формат : HEVC
Формат/Информация : High Efficiency Video Coding
Профиль формата : @Main
Идентификатор кодека : V_MPEGH/ISO/HEVC
Продолжительность : 2 м. 45 с.
Битрейт : 7158 Кбит/сек
Ширина : 1920 пикселей
Высота : 1080 пикселей
Соотношение сторон : 16:9
Режим частоты кадров : Постоянный
Частота кадров : 25,000 кадров/сек
Цветовое пространство : YUV
Субдискретизация насыщенности : 4:2:0
Битовая глубина : 8 бит
Бит/(Пиксели*Кадры) : 0.138
Размер потока : 141 Мбайт (88%)
Язык : English
Default : Да
Forced : Нет
Цветовой диапазон : Full
Основные цвета : BT.709
Характеристики трансфера : BT.709
Коэффициенты матрицы : BT.709

Аудио
Идентификатор : 2
Формат : FLAC
Формат/Информация : Free Lossless Audio Codec
Идентификатор кодека : A_FLAC
Продолжительность : 2 м. 45 с.
Вид битрейта : Переменный
Битрейт : 974 Кбит/сек
Каналы : 2 канала
Расположение каналов : Front: L R
Частота : 44,1 КГц
Частота кадров : 10,771 кадров/сек (4094 spf)
Битовая глубина : 16 бит
Нормализатор звука : -7,04 дБ
Пик нормализатор звука : 0.717163
Размер потока : 19,2 Мбайт (12%)
Библиотека кодирования : libFLAC 1.2.1 (UTC 2007-09-17)
Default : Да
Forced : Нет

Общее
Уникальный идентификатор : 211885166930005537775846206388734309483 (0x9F679949659E80CBAD26E9B85988B46B)
Полное имя : D:\Millenium Melody 6\23 Ariana Grande, The Weeknd - Love Me Harder.mkv
Формат : Matroska
Версия формата : Version 4 / Version 2
Размер файла : 81,4 Мбайт
Продолжительность : 4 м. 11 с.
Режим общего битрейта : Переменный
Общий поток : 2721 Кбит/сек
Дата кодирования : UTC 2016-06-05 18:46:00
Программа кодирования : mkvmerge v8.8.0 ('Wind at my back') 64bit
Библиотека кодирования : libebml v1.3.3 + libmatroska v1.4.4

Видео
Идентификатор : 1
Формат : AVC
Формат/Информация : Advanced Video Codec
Профиль формата : High@L4
Параметр CABAC формата : Да
Параметр ReFrames формата : 3 кадра
Идентификатор кодека : V_MPEG4/ISO/AVC
Продолжительность : 4 м. 10 с.
Битрейт : 1753 Кбит/сек
Ширина : 1920 пикселей
Высота : 1080 пикселей
Соотношение сторон : 16:9
Режим частоты кадров : Постоянный
Частота кадров : 23,976 кадра/сек
Цветовое пространство : YUV
Субдискретизация насыщенности : 4:2:0
Битовая глубина : 8 бит
Тип развёртки : Прогрессивная
Бит/(Пиксели*Кадры) : 0.035
Размер потока : 52,4 Мбайт (64%)
Default : Да
Forced : Нет
Цветовой диапазон : Limited
Основные цвета : BT.709
Характеристики трансфера : BT.709
Коэффициенты матрицы : BT.709

Аудио
Идентификатор : 2
Формат : FLAC
Формат/Информация : Free Lossless Audio Codec
Идентификатор кодека : A_FLAC
Продолжительность : 4 м. 11 с.
Вид битрейта : Переменный
Битрейт : 967 Кбит/сек
Каналы : 2 канала
Расположение каналов : Front: L R
Частота : 44,1 КГц
Частота кадров : 10,770 кадров/сек (4095 spf)
Битовая глубина : 16 бит
Размер потока : 28,9 Мбайт (36%)
Библиотека кодирования : libFLAC 1.2.1 (UTC 2007-09-17)
Default : Да
Forced : Нет

Общее
Уникальный идентификатор : 219162757884218450641463205565041294726 (0xA4E136393456B6AB80801A08CAE93D86)
Полное имя : D:\Millenium Melody 6\24 INNA - Yalla.mkv
Формат : Matroska
Версия формата : Version 4 / Version 2
Размер файла : 174 Мбайт
Продолжительность : 3 м. 16 с.
Общий поток : 7411 Кбит/сек
Дата кодирования : UTC 2016-06-07 01:53:35
Программа кодирования : mkvmerge v8.8.0 ('Wind at my back') 64bit
Библиотека кодирования : libebml v1.3.3 + libmatroska v1.4.4

Видео
Идентификатор : 1
Формат : HEVC
Формат/Информация : High Efficiency Video Coding
Профиль формата : @Main
Идентификатор кодека : V_MPEGH/ISO/HEVC
Продолжительность : 3 м. 16 с.
Битрейт : 7092 Кбит/сек
Ширина : 1920 пикселей
Высота : 1080 пикселей
Соотношение сторон : 16:9
Режим частоты кадров : Постоянный
Частота кадров : 25,000 кадров/сек
Цветовое пространство : YUV
Субдискретизация насыщенности : 4:2:0
Битовая глубина : 8 бит
Бит/(Пиксели*Кадры) : 0.137
Размер потока : 166 Мбайт (96%)
Язык : English
Default : Да
Forced : Нет
Цветовой диапазон : Full
Основные цвета : BT.709
Характеристики трансфера : BT.709
Коэффициенты матрицы : BT.709

Аудио
Идентификатор : 2
Формат : AAC
Формат/Информация : Advanced Audio Codec
Профиль формата : LC
Идентификатор кодека : A_AAC
Продолжительность : 3 м. 16 с.
Битрейт : 317 Кбит/сек
Каналы : 2 канала
Расположение каналов : Front: L R
Частота : 48,0 КГц
Частота кадров : 46,875 кадров/сек (1024 spf)
Метод сжатия : С потерями
Размер потока : 7,43 Мбайт (4%)
Язык : English
Default : Да
Forced : Нет

Общее
Уникальный идентификатор : 200825948798833855450415709348220441336 (0x9715ABBC2E5A5C679A65AB5CF5A512F8)
Полное имя : D:\Millenium Melody 6\25 Antonia - Chica Loca.mkv
Формат : Matroska
Версия формата : Version 4 / Version 2
Размер файла : 153 Мбайт
Продолжительность : 2 м. 50 с.
Общий поток : 7556 Кбит/сек
Дата кодирования : UTC 2016-06-07 01:56:39
Программа кодирования : mkvmerge v8.8.0 ('Wind at my back') 64bit
Библиотека кодирования : libebml v1.3.3 + libmatroska v1.4.4

Видео
Идентификатор : 1
Формат : HEVC
Формат/Информация : High Efficiency Video Coding
Профиль формата : @Main
Идентификатор кодека : V_MPEGH/ISO/HEVC
Продолжительность : 2 м. 50 с.
Битрейт : 7172 Кбит/сек
Ширина : 1920 пикселей
Высота : 1080 пикселей
Соотношение сторон : 16:9
Режим частоты кадров : Постоянный
Частота кадров : 25,000 кадров/сек
Цветовое пространство : YUV
Субдискретизация насыщенности : 4:2:0
Битовая глубина : 8 бит
Бит/(Пиксели*Кадры) : 0.138
Размер потока : 146 Мбайт (95%)
Язык : English
Default : Да
Forced : Нет
Цветовой диапазон : Full
Основные цвета : BT.709
Характеристики трансфера : BT.709
Коэффициенты матрицы : BT.709

Аудио
Идентификатор : 2
Формат : MPEG Audio
Версия формата : Version 1
Профиль формата : Layer 2
Идентификатор кодека : A_MPEG/L2
Идентификатор кодека/Подсказка : MP2
Продолжительность : 2 м. 50 с.
Вид битрейта : Постоянный
Битрейт : 384 Кбит/сек
Каналы : 2 канала
Частота : 48,0 КГц
Частота кадров : 41,667 кадра/сек (1152 spf)
Метод сжатия : С потерями
Размер потока : 7,80 Мбайт (5%)
Default : Да
Forced : Нет

Скриншоты:





Время раздачи: с 23:00 до 8:30, (до появления первых 3-5 скачавших)
 
Не забывайте говорить Спасибо. Не уходите с раздачи!   
Торрент: Зарегистрирован [12 июн 2016, 04:42] Скачать торрент
Скачать торрент
[ Размер 17.15 КБ / Просмотров 33 ]
Статус:
Проверен
 
.torrent скачан: 0 раз
Хэш: 8ff0d23f93ef1fb3776a119a42991b2a75ccd98f
Размер: 2.96 ГБ (3 183 005 645 байт)
Стать Автором раздачи
 
 
Раздал: 100 ГБ
Скачал: 0 байт
Ратио: Seed.
Сообщения: 111726
Зарегистрирован: 09 апр 2015, 22:31


  • Похожие торренты
    Ответы
    Просмотры
    Последнее сообщение

Вернуться в Музыкальные клипы (транзит)

Ресурс не предоставляет электронные версии произведений, а занимается лишь коллекционированием и каталогизацией ссылок, присылаемых и публикуемых на форуме нашими читателями. Если вы являетесь правообладателем какого-либо представленного материала и не желаете чтобы ссылка на него находилась в нашем каталоге, свяжитесь с нами и мы незамедлительно удалим её. Файлы для обмена на трекере предоставлены пользователями сайта, и администрация не несёт ответственности за их содержание. Просьба не заливать файлы, защищенные авторскими правами, а также файлы нелегального содержания!
cron