Игра на понижение / The Big Short (2015) BDRip [H.264] [MP4|960x400]

 
 Статистика раздачи 
Размер: 2.13 ГБ   |  Зарегистрирован: 11 июн 2016, 18:05   |   .torrent скачан: 0 раз
Сидеров: 1  [ 0 байт/сек ]     Личеров: 0  [ 0 байт/сек ]  
  

Игра на понижение / The Big Short (2015) BDRip [H.264] [MP4|960x400]

Сообщение explosiveone » 11 июн 2016, 18:05

Игра на понижение / The Big Short (2015) BDRip
«Неправдоподобная, но правдивая история»

Производство: США / Plan B Entertainment, Regency Enterprises
Жанр: Драма, Комедия, Биография

Режиссер: Адам МакКей
Продюсер: Деде Гарднер, Джереми Клейнер, Арнон Милчен
Актеры: Кристиан Бэйл, Стив Карелл, Райан Гослинг, Брэд Питт, Мелисса Лео, Хамиш Линклэйтер, Джон Магаро, Рейф Сполл, Джереми Стронг, Мариса Томей

Описание:
Когда речь идет о деньгах, совесть молчит. А уж если речь об огромных деньгах!.. Это основанная на реальных событиях история нескольких провидцев, которые независимо друг от друга предсказали мировой экономический кризис 2008 года задолго до того, как о нем зашептались в кулуарах на Уолл-стрит. И предсказав, стали на нем зарабатывать. Сами того не желая.


Возраст: 18+ (зрителям, достигшим 18 лет. запрещено для детей)
Рейтинг MPAA: R (лицам до 17 лет обязательно присутствие взрослого)
Награды и номинации

Релиз от: NNMCLUB
Продолжительность: 02:10:15
Качество видео: BDRip
Перевод: Дублированный (Лицензия BD CEE), Авторский (одноголосый, закадровый) (А. Матвеев)

Видео: AVC/H.264 (High@L3.1), 960x400 (2,40:1), ~1850 Кбит/сек. 23,976 Кадр/сек.
Аудио 1: AAC LC, 2.0, 160 Кбит/сек - Русский (DUB, Лицензия BD CEE)
Аудио 2: AAC LC, 2.0, 160 Кбит/сек - Русский (AVO, А. Матвеев)
Аудио 3: AAC LC, 2.0, 160 Кбит/сек - Английский (Оригинальный)
Код:
Код: Выделить всё
General
Complete name               : D:\Игра на понижение.BDRip.2015.NNMCLUB.mp4
Format                      : MPEG-4
Format profile              : Base Media
Codec ID                    : isom (isom/avc1/iso6)
File size                   : 2.13 GiB
Duration                    : 2h 10mn
Overall bit rate mode       : Variable
Overall bit rate            : 2 336 Kbps
Encoded date                : UTC 2016-06-11 13:21:52
Tagged date                 : UTC 2016-06-11 13:21:52

Video
ID                          : 1
Format                      : AVC
Format/Info                 : Advanced Video Codec
Format profile              :
Format settings, CABAC      : Yes
Format settings, ReFrames   : 8 frames
Codec ID                    : avc1
Codec ID/Info               : Advanced Video Coding
Duration                    : 2h 10mn
Bit rate                    : 1 850 Kbps
Maximum bit rate            : 6 122 Kbps
Width                       : 960 pixels
Height                      : 400 pixels
Display aspect ratio        : 2.40:1
Frame rate mode             : Constant
Frame rate                  : 23.976 (24000/1001) fps
Color space                 : YUV
Chroma subsampling          : 4:2:0
Bit depth                   : 8 bits
Scan type                   : Progressive
Bits/(Pixel*Frame)          : 0.201
Stream size                 : 1.68 GiB (79%)
Title                       : The Big Short
Writing library             : x264 core 148 r2638 7599210
Encoding settings           : cabac=1 / ref=8 / deblock=1:-1:-1 / analyse=0x3:0x133 / me=umh / subme=11 / psy=1 / psy_rd=1.00:0.15 / mixed_ref=1 / me_range=48 / chroma_me=1 / trellis=2 / 8x8dct=1 / cqm=0 / deadzone=21,11 / fast_pskip=0 / chroma_qp_offset=-3 / threads=12 / lookahead_threads=2 / sliced_threads=0 / nr=0 / decimate=1 / interlaced=0 / bluray_compat=0 / constrained_intra=0 / bframes=9 / b_pyramid=2 / b_adapt=2 / b_bias=0 / direct=3 / weightb=1 / open_gop=0 / weightp=2 / keyint=240 / keyint_min=23 / scenecut=40 / intra_refresh=0 / rc_lookahead=60 / rc=2pass / mbtree=0 / bitrate=1850 / ratetol=1.0 / qcomp=0.60 / qpmin=0 / qpmax=69 / qpstep=4 / cplxblur=20.0 / qblur=0.5 / vbv_maxrate=17500 / vbv_bufsize=17500 / nal_hrd=none / filler=0 / ip_ratio=1.40 / pb_ratio=1.30 / aq=1:1.00
Encoded date                : UTC 2016-06-11 13:21:52
Tagged date                 : UTC 2016-06-11 13:22:21

Audio #1
ID                          : 2
Format                      : AAC
Format/Info                 : Advanced Audio Codec
Format profile              : LC
Codec ID                    : 40
Duration                    : 2h 10mn
Source duration             : 2h 10mn
Bit rate mode               : Variable
Bit rate                    : 160 Kbps
Maximum bit rate            : 167 Kbps
Channel(s)                  : 2 channels
Channel positions           : Front: L R
Sampling rate               : 48.0 KHz
Frame rate                  : 46.875 fps (1024 spf)
Compression mode            : Lossy
Stream size                 : 149 MiB (7%)
Source stream size          : 149 MiB (7%)
Title                       : DUB BD CEE
Language                    : Russian
Encoded date                : UTC 2016-06-11 13:22:10
Tagged date                 : UTC 2016-06-11 13:22:21

Audio #2
ID                          : 3
Format                      : AAC
Format/Info                 : Advanced Audio Codec
Format profile              : LC
Codec ID                    : 40
Duration                    : 2h 10mn
Source duration             : 2h 10mn
Bit rate mode               : Variable
Bit rate                    : 160 Kbps
Maximum bit rate            : 169 Kbps
Channel(s)                  : 2 channels
Channel positions           : Front: L R
Sampling rate               : 48.0 KHz
Frame rate                  : 46.875 fps (1024 spf)
Compression mode            : Lossy
Stream size                 : 149 MiB (7%)
Source stream size          : 149 MiB (7%)
Title                       : AVO [Matveev]
Language                    : Russian
Encoded date                : UTC 2016-06-11 13:22:13
Tagged date                 : UTC 2016-06-11 13:22:21

Audio #3
ID                          : 4
Format                      : AAC
Format/Info                 : Advanced Audio Codec
Format profile              : LC
Codec ID                    : 40
Duration                    : 2h 10mn
Source duration             : 2h 10mn
Bit rate mode               : Variable
Bit rate                    : 160 Kbps
Maximum bit rate            : 169 Kbps
Channel(s)                  : 2 channels
Channel positions           : Front: L R
Sampling rate               : 48.0 KHz
Frame rate                  : 46.875 fps (1024 spf)
Compression mode            : Lossy
Stream size                 : 149 MiB (7%)
Source stream size          : 149 MiB (7%)
Title                       : Original
Language                    : English
Encoded date                : UTC 2016-06-11 13:22:16
Tagged date                 : UTC 2016-06-11 13:22:21
Код:
Код: Выделить всё
x264 [info]: profile High, level 3.1
x264 [info]: frame I:1493  Avg QP:16.82  size: 64375
x264 [info]: frame P:40245 Avg QP:19.74  size: 19075
x264 [info]: frame B:145655 Avg QP:21.06  size:  6473
x264 [info]: consecutive B-frames:  2.2%  2.6%  9.6% 15.0% 17.0% 41.8%  4.9%  1.7%  1.9%  3.3%
x264 [info]: mb I  I16..4: 23.9% 55.0% 21.1%
x264 [info]: mb P  I16..4:  1.2% 11.5%  1.4%  P16..4: 29.8% 34.8% 11.2%  1.8%  0.2%    skip: 8.3%
x264 [info]: mb B  I16..4:  0.1%  1.1%  0.1%  B16..8: 38.4% 18.0%  2.7%  direct: 4.8%  skip:34.9%  L0:42.8% L1:47.9% BI: 9.3%
x264 [info]: 8x8 transform intra:78.7% inter:61.0%
x264 [info]: direct mvs  spatial:98.9% temporal:1.1%
x264 [info]: coded y,uvDC,uvAC intra: 92.5% 87.4% 70.1% inter: 24.7% 20.1% 5.1%
x264 [info]: i16 v,h,dc,p: 18% 10% 25% 47%
x264 [info]: i8 v,h,dc,ddl,ddr,vr,hd,vl,hu:  8%  7% 10% 10% 14% 13% 13% 12% 13%
x264 [info]: i4 v,h,dc,ddl,ddr,vr,hd,vl,hu: 12% 11%  5%  8% 14% 14% 13% 11% 12%
x264 [info]: i8c dc,h,v,p: 44% 21% 17% 18%
x264 [info]: Weighted P-Frames: Y:5.5% UV:3.1%
x264 [info]: ref P L0: 52.3%  8.8% 17.7%  7.2%  5.3%  3.8%  3.0%  1.6%  0.2%  0.0%
x264 [info]: ref B L0: 75.2% 13.2%  5.8%  2.8%  1.8%  0.9%  0.3%
x264 [info]: ref B L1: 92.9%  7.1%
x264 [info]: kb/s:1849.20
Большое спасибо Дяде Шарику за предоставленный доступ к железу для создания рипа.

Скриншоты:


Время раздачи: Круглосуточно, до первых 10-и скачавших.
 
Не забывайте говорить Спасибо. Не уходите с раздачи!   
Торрент: Зарегистрирован [11 июн 2016, 18:05] Для скачивания .torrent
необходима регистрация
Или скачать с помощью
MediaGet
Статус:
Проверен
 
.torrent скачан: 0 раз
Хэш: aadc013a680a8c908c5b8c53dfc0cc88c8b67663
Размер: 2.13 ГБ (2 282 719 048 байт)
Стать Автором раздачи
 
 
Раздал: 100 ГБ
Скачал: 0 байт
Ратио: Seed.
Сообщения: 94043
Зарегистрирован: 09 апр 2015, 22:31


  • Похожие торренты
    Ответы
    Просмотры
    Последнее сообщение

Вернуться в Видео для мобильных устройств

Ресурс не предоставляет электронные версии произведений, а занимается лишь коллекционированием и каталогизацией ссылок, присылаемых и публикуемых на форуме нашими читателями. Если вы являетесь правообладателем какого-либо представленного материала и не желаете чтобы ссылка на него находилась в нашем каталоге, свяжитесь с нами и мы незамедлительно удалим её. Файлы для обмена на трекере предоставлены пользователями сайта, и администрация не несёт ответственности за их содержание. Просьба не заливать файлы, защищенные авторскими правами, а также файлы нелегального содержания!
cron