Сборник клипов - Philizz "Video YearMix" (2015) HDTV [1080p]

 
 Статистика раздачи 
Размер: 5.69 ГБ   |  Зарегистрирован: 10 июн 2016, 16:23   |   .torrent скачан: 0 раз
Сидеров: 1  [ 0 байт/сек ]     Личеров: 0  [ 0 байт/сек ]  
  

Сборник клипов - Philizz "Video YearMix" (2015) HDTV [1080p]

Сообщение explosiveone » 10 июн 2016, 16:23

Сборник клипов - Philizz "Video YearMix" (2015) HDTV [1080p]

Исполнитель: Philizz
Название: Video YearMix
Год выхода: 2015
Жанр: Pop, Club, Dance, Video-Megamix
Продолжительность: 00:58:25

Описание:
Сборник клипов "YEARMIX-2015": все закручено и заверчено фирменным миксом от голландского ви-джея Philizz.
"YEARMIX-2015" - это обзор лучших клипов уходящего года по версии Philizz.

- Мегамикс - это видеосборник,составленный из небольших фрагментов клипов. Довольно новое явление в современной музыкальной культуре,
насчитывает всего несколько лет,и все больше и больше приобретает популярность.
- Разбивка по трекам отсутствует.

Видеокодек: MPEG4 (AVC)
Качество видео: HDTV
Размер кадра: 1920х1080
Битрейт видео: 13.6 Mbps
Аудиокодек: AАC 2.0
Битрейт аудио: 318 Kbps
Wiz Khalifa ft. Charlie Puth - See You Again
Silento - Watch Me
Taylor Swift - Wildest Dreams
Kwabs - Walk
Taylor Swift ft. Kendrick Lamar - Bad Blood
Nicky Jam ft. Enrique Iglesias - Forgiveness (El Perdon)
The Vamps - Wake Up
R. City ft. Adam Levine - Locked Away
Ellie Goulding - Love Me Like You Do
Troye Sivan - Wild
Taylor Swift - Style
David Guetta ft. Nicki Minaj, Bebe Rexha & Afrojack - Hey Mama
Kenny B - Parijs
Ariana Grande - Focus
Kygo ft. Parson James - Stole The Show
Charli XCX - Famous
Fifth Harmony ft. Kid Ink - Worth It
Major Lazer ft. DJ Snake & Mo - Lean On
Sam Smith - Like I Can
Justin Bieber - Sorry
Christine and The Queens - Christine
Zara Larsson - Lush Life
Maroon 5 - This Summer's Gonna Hurt Like A Motherfucker
One Direction - Perfect
Justin Bieber - Love Yourself
Jake Miller ft. Travie McCoy - Dazed And Confused
Austin Mahone - Dirty Work
Nick Jonas - Levels
Kygo ft. Ella Henderson - Here For You
Natalie La Rose ft. Jeremih - Somebody
Britney Spears ft. Iggy Azalea - Pretty Girls
Rachel Platten - Fight Song
Eva Simons ft. Konshens - Policeman
Iggy Azalea ft. Jennifer Hudson - Trouble
Years & Years - Shine
The Weeknd - Can't Feel My Face
David Guetta ft. Sia & Fetty Wap - Bang My Head
Selena Gomez - Same Old Love
Zedd ft. Jon Bellion - Beautiful Now
Ed Sheeran - Photograph
Charlie Puth ft. Meghan Trainor - Marvin Gaye
Demi Lovato - Cool For The Summer
Jason Derulo - Want To Want Me
Louane - Avenir
Pitbull ft. Chris Brown - Fun
Flo Rida ft. Robin Thicke & Verdine Whit - I Don't Like It, I Love It
Seinabo Sey - Younger
Feder ft. Lyse - Goodbye
Kygo ft. Conrad Sewell - Firestone
OMI ft. Felix Jaehn - Cheerleader
Robin Schulz ft. Ilsey - Headlights
Lost Frequencies - Are You With Me
Robin Schulz ft. Francesco Yates - Sugar
Listenbee - Save Me
OMI - Hula Hoop
Lil Kleine & Ronnie Flex - Drank & Drugs
Felix Jaehn ft. Jasmine Thompson - Ain't Nobody
Jess Glynne - Hold My Hand
Rihanna ft. Kanye West & Paul McCartney - FourFiveSeconds
Years & Years - King
Lost Frequencies ft. Janieck Devy - Reality
Sigma ft. Rita Ora - Coming Home
Maroon 5 - Sugar
Ariana Grande - One Last Time
Walk The Moon - Shut Up And Dance
Justin Bieber - What Do You Mean
Calvin Harris ft. HAIM - Pray To God
Lunchmoney Lewis - Bills
Carly Rae Jepsen - I Really Like You
Zedd ft. Selena Gomez - I Want You To Know
Martin Garrix ft. Usher - Don't Look Down
Adam Lambert - Ghost Town
Sigala - Easy Love
David Guetta ft. Emeli Sande - What I Did For Love
Axwell / Ingrosso - Sun Is Shining
Armin van Buuren ft. Mr. Probz - Another You
Drake - Hotline Bling
Skrillex ft. Diplo & Justin Bieber - Where Are U Now
Shawn Mendes - Stitches
Adele - Hello
Код:
Код: Выделить всё
Общее
Полное имя : Philizz Video Yearmix - 2015.HDTV1080p.mp4
Формат : MPEG-4
Профиль формата : Base Media / Version 2
Идентификатор кодека : mp42 (mp42/mp41)
Размер файла : 5,69 Гбайт
Продолжительность : 58 м.
Режим общего битрейта : Переменный
Общий поток : 13,9 Мбит/сек
Дата кодирования : UTC 2015-12-15 15:50:03
Дата пометки : UTC 2015-12-21 15:51:20
©TIM : 00:00:54:13
©TSC : 25
©TSZ : 1

Видео
Идентификатор : 1
Формат : AVC
Формат/Информация : Advanced Video Codec
Профиль формата :
Параметр CABAC формата : Да
Параметр ReFrames формата : 3 кадра
Идентификатор кодека : avc1
Идентификатор кодека/Информация : Advanced Video Coding
Продолжительность : 58 м.
Вид битрейта : Переменный
Битрейт : 13,6 Мбит/сек
Максимальный битрейт : 40,0 Мбит/сек
Ширина : 1920 пикселей
Высота : 1080 пикселей
Соотношение сторон : 16:9
Режим частоты кадров : Постоянный
Частота кадров : 25,000 кадров/сек
Стандарт вещания : PAL
Цветовое пространство : YUV
Субдискретизация насыщенности : 4:2:0
Битовая глубина : 8 бит
Тип развёртки : Прогрессивная
Бит/(Пиксели*Кадры) : 0.263
Размер потока : 5,56 Гбайт (98%)
Язык : English
Дата кодирования : UTC 2015-12-15 15:50:03
Дата пометки : UTC 2015-12-15 15:50:03
Цветовой диапазон : Limited

Аудио
Идентификатор : 2
Формат : AAC
Формат/Информация : Advanced Audio Codec
Профиль формата : LC
Идентификатор кодека : 40
Продолжительность : 58 м.
Продолжительность оригинала : 58 м.
Вид битрейта : Переменный
Битрейт : 318 Кбит/сек
Максимальный битрейт : 403 Кбит/сек
Каналы : 2 канала
Расположение каналов : Front: L R
Частота : 44,1 КГц
Частота кадров : 43,066 кадра/сек (1024 spf)
Метод сжатия : С потерями
Размер потока : 133 Мбайт (2%)
Размер потока оригинала : 133 Мбайт (2%)
Язык : English
Дата кодирования : UTC 2015-12-15 15:50:03
Дата пометки : UTC 2015-12-15 15:50:03
Скриншоты:


Время раздачи: 24/7
Приятного просмотра Philizz Video YearMix - 2015!

 
Не забывайте говорить Спасибо. Не уходите с раздачи!   
Торрент: Зарегистрирован [10 июн 2016, 16:23] Скачать торрент
Скачать торрент
[ Размер 29.17 КБ / Просмотров 31 ]
Статус:
Проверен
 
.torrent скачан: 0 раз
Хэш: fe922b1b562dabb05dbbe44d0b70d089d21ecd4c
Размер: 5.69 ГБ (6 106 832 906 байт)
Стать Автором раздачи
 
 
Раздал: 100 ГБ
Скачал: 0 байт
Ратио: Seed.
Сообщения: 108807
Зарегистрирован: 09 апр 2015, 22:31


  • Похожие торренты
    Ответы
    Просмотры
    Последнее сообщение

Вернуться в Музыкальные клипы (транзит)

Ресурс не предоставляет электронные версии произведений, а занимается лишь коллекционированием и каталогизацией ссылок, присылаемых и публикуемых на форуме нашими читателями. Если вы являетесь правообладателем какого-либо представленного материала и не желаете чтобы ссылка на него находилась в нашем каталоге, свяжитесь с нами и мы незамедлительно удалим её. Файлы для обмена на трекере предоставлены пользователями сайта, и администрация не несёт ответственности за их содержание. Просьба не заливать файлы, защищенные авторскими правами, а также файлы нелегального содержания!
cron