VA - John Digweed - Re: Structured (Bedrock Records) (2015) Box Set [FLAC|Lossless|image + .cue] <Progressive House, Deep House>

 
 Статистика раздачи 
Размер: 1.49 ГБ   |  Зарегистрирован: 04 июн 2016, 17:39   |   .torrent скачан: 2 раз
Сидеров: 1  [ 0 байт/сек ]     Личеров: 0  [ 0 байт/сек ]  
  

VA - John Digweed - Re: Structured (Bedrock Records) (2015) Box Set [FLAC|Lossless|image + .cue] <Progressive House, Deep House>

Сообщение explosiveone » 04 июн 2016, 17:39

VA - John Digweed - Re: Structured (Bedrock Records) (2015) 3CD Box Set

Год: 2015
Жанр: Progressive House, Deep House
Издание: Bedrestructcd - 5060243329462
Продолжительность: 03:50:12
Источник (релизер): thunderresistant

Кодек: FLAC
Битрейт: Lossless
Тип рипа: image + .cue
#77Треклист:
01. Quivver - Time Go By (Reprise)
02. Joop Junior - Sofie_Lucie
03. Rory Gallagher & James Trystan - Waking Giants
04. Philipp Straub & Andrew Fonda - True Basics
05. Dave Angel - Scorpion
06. Montel - Life
07. CJ Jeff - Leave Me
08. BOg - Ava
09. Montel - At Night
10. Lee Van Dowski - Ici Et Maintenant


Продолжительноcть: 01:17:00
Код:
Код: Выделить всё
Exact Audio Copy V1.1 from 23. June 2015

EAC extraction logfile from 4. June 2016, 10:34

VA / Re:Structured Mixed by John Digweed

Used drive  : PIONEER DVD-RW  DVR-220   Adapter: 1  ID: 0

Read mode               : Secure
Utilize accurate stream : Yes
Defeat audio cache      : Yes
Make use of C2 pointers : No

Read offset correction                      : 6
Overread into Lead-In and Lead-Out          : No
Fill up missing offset samples with silence : Yes
Delete leading and trailing silent blocks   : No
Null samples used in CRC calculations       : Yes
Used interface                              : Native Win32 interface for Win NT & 2000

Used output format              : User Defined Encoder
Selected bitrate                : 768 kBit/s
Quality                         : High
Add ID3 tag                     : No
Command line compressor         : C:\Program Files (x86)\Exact Audio Copy\Flac\flac.exe
Additional command line options : -8 -V -T "TITLE=%title%" -T "ARTIST=%artist%" -T "ALBUMARTIST=%albumartist%" -T "ALBUM=%albumtitle%" -T "DATE=%year%" -T "TRACKNUMBER=%tracknr%" -T "TRACKTOTAL=%numtracks%" -T "GENRE=%genre%" -T "COMMENT=%comment%" -T "PERFORMER=%albuminterpret%" -T "COMPOSER=%composer%" %source% -o %dest%

TOC of the extracted CD

     Track |   Start  |  Length  | Start sector | End sector
    ---------------------------------------------------------
        1  |  0:00.00 |  5:36.17 |         0    |    25216
        2  |  5:36.17 |  9:47.40 |     25217    |    69281
        3  | 15:23.57 |  7:46.21 |     69282    |   104252
        4  | 23:10.03 |  7:02.35 |    104253    |   135937
        5  | 30:12.38 |  7:40.58 |    135938    |   170495
        6  | 37:53.21 |  7:56.11 |    170496    |   206206
        7  | 45:49.32 |  6:49.14 |    206207    |   236895
        8  | 52:38.46 |  7:04.01 |    236896    |   268696
        9  | 59:42.47 |  7:54.58 |    268697    |   304304
       10  | 67:37.30 |  9:23.02 |    304305    |   346531

Range status and errors

Selected range

     Filename D:\Музыка\Electro\John Digweed Re Structured FLAC 3CD [NNMClub]\CD1\VA - Re-Structured Mixed by John Digweed.wav

     Peak level 94.4 %
     Extraction speed 8.3 X
     Range quality 99.9 %
     Test CRC E3CE10B0
     Copy CRC E3CE10B0
     Copy OK

No errors occurred

AccurateRip summary

Track  1  accurately ripped (confidence 4)  [3817BB0D]  (AR v2)
Track  2  accurately ripped (confidence 4)  [840230A5]  (AR v2)
Track  3  accurately ripped (confidence 4)  [DC7E011E]  (AR v2)
Track  4  accurately ripped (confidence 4)  [4E5BACB1]  (AR v2)
Track  5  accurately ripped (confidence 4)  [9C94B81E]  (AR v2)
Track  6  accurately ripped (confidence 4)  [2AC0A0A0]  (AR v2)
Track  7  accurately ripped (confidence 4)  [0905EC3C]  (AR v2)
Track  8  accurately ripped (confidence 4)  [C1A9BC1D]  (AR v2)
Track  9  accurately ripped (confidence 4)  [15219BB8]  (AR v2)
Track 10  accurately ripped (confidence 4)  [713898BD]  (AR v2)

All tracks accurately ripped

End of status report

---- CUETools DB Plugin V2.1.6

[CTDB TOCID: EMVN_HaCHZX1M7VTBNgMZ4UKLU8-] found
Submit result: already submitted
Track | CTDB Status
  1   | (17/17) Accurately ripped
  2   | (17/17) Accurately ripped
  3   | (17/17) Accurately ripped
  4   | (17/17) Accurately ripped
  5   | (17/17) Accurately ripped
  6   | (17/17) Accurately ripped
  7   | (17/17) Accurately ripped
  8   | (17/17) Accurately ripped
  9   | (17/17) Accurately ripped
 10   | (17/17) Accurately ripped

==== Log checksum 6EF7E23D6FBFD005339C92573E8490AD647CD491A3EA4D229B85C2E643C94729 ====
Код:
Код: Выделить всё
-----------------------

DON'T MODIFY THIS FILE

-----------------------

PERFORMER: auCDtect Task Manager, ver. 1.6.0 RC1 build 1.6.0.1
Copyright (c) 2008-2010 y-soft. All rights reserved
http:/y-soft.org

ANALYZER: auCDtect: CD records authenticity detector, version 0.8.2
Copyright (c) 2004 Oleg Berngardt. All rights reserved.
Copyright (c) 2004 Alexander Djourik. All rights reserved.

FILE: VA - Re-Structured Mixed by John Digweed.flac
  Size: 507588493 Hash: 0A269D2D03A43F12DFD4992C04FFE284 Accuracy: -m0
  Conclusion: CDDA 100%
  Signature: 239A3C853340EE2E6E219FD5B85CE2B6B9461400
Код:
Код: Выделить всё
REM GENRE Electronic
REM DATE 2015
REM DISCID 8C120C0A
REM COMMENT "ExactAudioCopy v1.1"
PERFORMER "VA"
TITLE "Re:Structured Mixed by John Digweed"
FILE "VA - Re-Structured Mixed by John Digweed.flac" WAVE
  TRACK 01 AUDIO
    TITLE "Time Go By (Reprise)"
    PERFORMER "Quivver"
    INDEX 01 00:00:00
  TRACK 02 AUDIO
    TITLE "Sofie_Lucie"
    PERFORMER "Joop Junior"
    INDEX 01 05:36:17
  TRACK 03 AUDIO
    TITLE "Walking Giants"
    PERFORMER "Rory Gallagher & James Trystan"
    INDEX 01 15:23:57
  TRACK 04 AUDIO
    TITLE "True Basics"
    PERFORMER "Philipp Straub & Andrew Fonda"
    INDEX 01 23:10:03
  TRACK 05 AUDIO
    TITLE "Scorpion"
    PERFORMER "Dave Angel"
    INDEX 01 30:12:38
  TRACK 06 AUDIO
    TITLE "Life"
    PERFORMER "Montel"
    INDEX 01 37:53:21
  TRACK 07 AUDIO
    TITLE "Leave Me"
    PERFORMER "CJ Jeff"
    INDEX 01 45:49:32
  TRACK 08 AUDIO
    TITLE "Ava"
    PERFORMER "BOg"
    INDEX 01 52:38:46
  TRACK 09 AUDIO
    TITLE "At Night"
    PERFORMER "Montel"
    INDEX 01 59:42:47
  TRACK 10 AUDIO
    TITLE "Ici Et Maintenant"
    PERFORMER "Lee Van Dowski"
    INDEX 01 67:37:30
#77Треклиcт:
01. Bedrock - Santiago (Nick Muir 2015 Downtempo Version)
02. Guy J - Candyland (Luca Bacchetti Endless Remix)
03. John Digweed & Nick Muir - Track For Life (Cosmic Cowboys Remix)
04. Bedrock - Santiago (Joeski Remix)
05. Bedrock - Beautiful Strange (Montel Remix)
06. Bedrock - Emerald (BOg Remix)
07. John Digweed & Nick Muir - Aquatonic (Alberto Ruiz Remix)
08. John Digweed & Nick Muir vs Christian Smith & Wehbba - Mantis (Alexander Kowalski Remix)
09. JDNMGJ - Trezzz (Nick Muir 2015 Remix)
10. John Digweed & Nick Muir - Tangent (Sian Aztec Remix)
11. John Digweed & Nick Muir vs Psycatron - Awakenings (Electric Rescue Acid Remix)


Продолжительноcть: 01:18:22
Код:
Код: Выделить всё
Exact Audio Copy V1.1 from 23. June 2015

EAC extraction logfile from 4. June 2016, 10:13

VA / Re:Structured Mixed by John Digweed

Used drive  : PIONEER DVD-RW  DVR-220   Adapter: 1  ID: 0

Read mode               : Secure
Utilize accurate stream : Yes
Defeat audio cache      : Yes
Make use of C2 pointers : No

Read offset correction                      : 6
Overread into Lead-In and Lead-Out          : No
Fill up missing offset samples with silence : Yes
Delete leading and trailing silent blocks   : No
Null samples used in CRC calculations       : Yes
Used interface                              : Native Win32 interface for Win NT & 2000

Used output format              : User Defined Encoder
Selected bitrate                : 768 kBit/s
Quality                         : High
Add ID3 tag                     : No
Command line compressor         : C:\Program Files (x86)\Exact Audio Copy\Flac\flac.exe
Additional command line options : -8 -V -T "TITLE=%title%" -T "ARTIST=%artist%" -T "ALBUMARTIST=%albumartist%" -T "ALBUM=%albumtitle%" -T "DATE=%year%" -T "TRACKNUMBER=%tracknr%" -T "TRACKTOTAL=%numtracks%" -T "GENRE=%genre%" -T "COMMENT=%comment%" -T "PERFORMER=%albuminterpret%" -T "COMPOSER=%composer%" %source% -o %dest%

TOC of the extracted CD

     Track |   Start  |  Length  | Start sector | End sector
    ---------------------------------------------------------
        1  |  0:00.00 |  6:35.00 |         0    |    29624
        2  |  6:35.00 |  8:43.52 |     29625    |    68901
        3  | 15:18.52 |  8:16.02 |     68902    |   106103
        4  | 23:34.54 |  6:18.36 |    106104    |   134489
        5  | 29:53.15 |  7:00.05 |    134490    |   165994
        6  | 36:53.20 |  7:28.39 |    165995    |   199633
        7  | 44:21.59 |  6:20.72 |    199634    |   228205
        8  | 50:42.56 |  6:36.15 |    228206    |   257920
        9  | 57:18.71 |  7:13.40 |    257921    |   290435
       10  | 64:32.36 |  6:17.74 |    290436    |   318784
       11  | 70:50.35 |  7:31.55 |    318785    |   352664

Range status and errors

Selected range

     Filename D:\Музыка\Electro\John Digweed Re Structured FLAC 3CD [NNMClub]\CD2\VA - Re-Structured Mixed by John Digweed.wav

     Peak level 94.4 %
     Extraction speed 8.5 X
     Range quality 100.0 %
     Test CRC 797D6CD8
     Copy CRC 797D6CD8
     Copy OK

No errors occurred

AccurateRip summary

Track  1  accurately ripped (confidence 4)  [8899C7EF]  (AR v2)
Track  2  accurately ripped (confidence 4)  [2A3AB270]  (AR v2)
Track  3  accurately ripped (confidence 4)  [F11D28B8]  (AR v2)
Track  4  accurately ripped (confidence 4)  [B699EFC5]  (AR v2)
Track  5  accurately ripped (confidence 4)  [3DE259FB]  (AR v2)
Track  6  accurately ripped (confidence 4)  [5B674D6E]  (AR v2)
Track  7  accurately ripped (confidence 4)  [84AF0F58]  (AR v2)
Track  8  accurately ripped (confidence 4)  [0366AB6F]  (AR v2)
Track  9  accurately ripped (confidence 4)  [295E01D6]  (AR v2)
Track 10  accurately ripped (confidence 4)  [4FB3F0FB]  (AR v2)
Track 11  accurately ripped (confidence 4)  [7C72F0E2]  (AR v2)

All tracks accurately ripped

End of status report

---- CUETools DB Plugin V2.1.6

[CTDB TOCID: qcg.dMyauY3JtcR2Sawyvr5dKtM-] found
Submit result: already submitted
Track | CTDB Status
  1   | (18/18) Accurately ripped
  2   | (18/18) Accurately ripped
  3   | (17/18) Accurately ripped
  4   | (17/18) Accurately ripped
  5   | (17/18) Accurately ripped
  6   | (17/18) Accurately ripped
  7   | (17/18) Accurately ripped
  8   | (17/18) Accurately ripped
  9   | (17/18) Accurately ripped
 10   | (17/18) Accurately ripped
 11   | (17/18) Accurately ripped

==== Log checksum B55F194E674ED617EE5B70E7AD267110766D713AB34C5A99E4A0FE7DF078A4E8 ====

Код:
Код: Выделить всё
-----------------------

DON'T MODIFY THIS FILE

-----------------------

PERFORMER: auCDtect Task Manager, ver. 1.6.0 RC1 build 1.6.0.1
Copyright (c) 2008-2010 y-soft. All rights reserved
http:/y-soft.org

ANALYZER: auCDtect: CD records authenticity detector, version 0.8.2
Copyright (c) 2004 Oleg Berngardt. All rights reserved.
Copyright (c) 2004 Alexander Djourik. All rights reserved.

FILE: VA - Re-Structured Mixed by John Digweed.flac
  Size: 527399218 Hash: 1CBAFBAE947D0024B11FDE65954AF3AC Accuracy: -m0
  Conclusion: CDDA 100%
  Signature: 6DD1F6522E9262A918D5EF2C671CADFAF0959935

Код:
Код: Выделить всё
REM GENRE Electronic
REM DATE 2015
REM DISCID 96125E0B
REM COMMENT "ExactAudioCopy v1.1"
PERFORMER "VA"
TITLE "Re:Structured Mixed by John Digweed"
FILE "VA - Re-Structured Mixed by John Digweed.flac" WAVE
  TRACK 01 AUDIO
    TITLE "Santiago (Nick Muir 2015 Downtempo Version)"
    PERFORMER "Bedrock"
    INDEX 01 00:00:00
  TRACK 02 AUDIO
    TITLE "Candyland (Luca Bacchetti Endless Remix)"
    PERFORMER "Guy J"
    INDEX 01 06:35:00
  TRACK 03 AUDIO
    TITLE "Track For Life (Cosmic Cowboys Remix)"
    PERFORMER "John Digweed & Nick Muir"
    INDEX 01 15:18:52
  TRACK 04 AUDIO
    TITLE "Santiago (Joeski Remix)"
    PERFORMER "Bedrock"
    INDEX 01 23:34:54
  TRACK 05 AUDIO
    TITLE "Beautiful Strange (Montel Remix)"
    PERFORMER "Bedrock"
    INDEX 01 29:53:15
  TRACK 06 AUDIO
    TITLE "Emerald (BOg Remix)"
    PERFORMER "Bedrock"
    INDEX 01 36:53:20
  TRACK 07 AUDIO
    TITLE "Aquatonic (Alberto Ruiz Remix)"
    PERFORMER "John Digweed & Nick Muir"
    INDEX 01 44:21:59
  TRACK 08 AUDIO
    TITLE "Mantis (Alexander Kowalski Remix)"
    PERFORMER "John Digweed & Nick Muir vs Christian Smith & Wehbba"
    INDEX 01 50:42:56
  TRACK 09 AUDIO
    TITLE "Trezzz (Nick Muir 2015 Remix)"
    PERFORMER "JDNMGJ"
    INDEX 01 57:18:71
  TRACK 10 AUDIO
    TITLE "Tangent (Sian Aztec Remix)"
    PERFORMER "John Digweed & Nick Muir"
    INDEX 01 64:32:36
  TRACK 11 AUDIO
    TITLE "Awakenings (Electric Rescue Acid Remix)"
    PERFORMER "John Digweed & Nick Muir vs Psycatron"
    INDEX 01 70:50:35
#77Треклиcт:
01. Culoe De Song - Y.O.U.D.
02. John Digweed & Nick Muir - Track For Life
03. John Digweed & Nick Muir - Aquatonic (Alberto Ruiz Remix)
04. Bedrock - Santiago (Joeski Remix)
05. Steve Parry - Flippant
06. Gel Abril - Carpet Sneak
07. Sian - Medicine Man (Pig & Dan Remix)
08. Bedrock - Emerald (BOg Remix)
09. Dave Angel - Scorpion
10. Pig & Dan - Lizard King (Julian Jeweil Remix)
11. Bedrock - Beautiful Strange (Montel Remix)
12. DJ Dozia - Pop Culture (KiNK Mix)
13. Clarian - Fear and Self Loathing
14. Daniel Stefanik - Twilight Zone


Продолжительноcть: 01:14:50
Код:
Код: Выделить всё
Exact Audio Copy V1.1 from 23. June 2015

EAC extraction logfile from 4. June 2016, 1:29

John Digweed / Re:Structured Mixed by John Digweed

Used drive  : PIONEER DVD-RW  DVR-220   Adapter: 1  ID: 0

Read mode               : Secure
Utilize accurate stream : Yes
Defeat audio cache      : Yes
Make use of C2 pointers : No

Read offset correction                      : 6
Overread into Lead-In and Lead-Out          : No
Fill up missing offset samples with silence : Yes
Delete leading and trailing silent blocks   : No
Null samples used in CRC calculations       : Yes
Used interface                              : Native Win32 interface for Win NT & 2000

Used output format              : User Defined Encoder
Selected bitrate                : 768 kBit/s
Quality                         : High
Add ID3 tag                     : No
Command line compressor         : C:\Program Files (x86)\Exact Audio Copy\Flac\flac.exe
Additional command line options : -8 -V -T "TITLE=%title%" -T "ARTIST=%artist%" -T "ALBUMARTIST=%albumartist%" -T "ALBUM=%albumtitle%" -T "DATE=%year%" -T "TRACKNUMBER=%tracknr%" -T "TRACKTOTAL=%numtracks%" -T "GENRE=%genre%" -T "COMMENT=%comment%" -T "PERFORMER=%albuminterpret%" -T "COMPOSER=%composer%" %source% -o %dest%

TOC of the extracted CD

     Track |   Start  |  Length  | Start sector | End sector
    ---------------------------------------------------------
        1  |  0:00.00 |  5:51.22 |         0    |    26346
        2  |  5:51.22 |  4:47.55 |     26347    |    47926
        3  | 10:39.02 |  4:26.55 |     47927    |    67931
        4  | 15:05.57 |  5:20.54 |     67932    |    91985
        5  | 20:26.36 |  6:55.17 |     91986    |   123127
        6  | 27:21.53 |  4:45.27 |    123128    |   144529
        7  | 32:07.05 |  4:11.68 |    144530    |   163422
        8  | 36:18.73 |  7:28.51 |    163423    |   197073
        9  | 43:47.49 |  5:29.45 |    197074    |   221793
       10  | 49:17.19 |  4:27.31 |    221794    |   241849
       11  | 53:44.50 |  4:54.58 |    241850    |   263957
       12  | 58:39.33 |  6:53.62 |    263958    |   294994
       13  | 65:33.20 |  4:41.07 |    294995    |   316076
       14  | 70:14.27 |  4:35.49 |    316077    |   336750

Range status and errors

Selected range

     Filename D:\Музыка\Electro\John Digweed - Re-Structured Mixed by John Digweed.wav

     Peak level 94.4 %
     Extraction speed 8.1 X
     Range quality 100.0 %
     Test CRC 0E7C3512
     Copy CRC 0E7C3512
     Copy OK

No errors occurred

AccurateRip summary

Track  1  accurately ripped (confidence 4)  [331271CC]  (AR v2)
Track  2  accurately ripped (confidence 4)  [E4E1B1C5]  (AR v2)
Track  3  accurately ripped (confidence 4)  [A8EAC811]  (AR v2)
Track  4  accurately ripped (confidence 4)  [136F0224]  (AR v2)
Track  5  accurately ripped (confidence 4)  [0AEE2550]  (AR v2)
Track  6  accurately ripped (confidence 4)  [05824F39]  (AR v2)
Track  7  accurately ripped (confidence 4)  [57C3045F]  (AR v2)
Track  8  accurately ripped (confidence 4)  [C167DFFA]  (AR v2)
Track  9  accurately ripped (confidence 4)  [D0485344]  (AR v2)
Track 10  accurately ripped (confidence 4)  [9E09A94C]  (AR v2)
Track 11  accurately ripped (confidence 4)  [BD83AA3E]  (AR v2)
Track 12  accurately ripped (confidence 4)  [A6CBAED5]  (AR v2)
Track 13  accurately ripped (confidence 4)  [8A0F6402]  (AR v2)
Track 14  accurately ripped (confidence 4)  [47709412]  (AR v2)

All tracks accurately ripped

End of status report

---- CUETools DB Plugin V2.1.6

[CTDB TOCID: JkBIk6L9Hlo0R4N1NOQcpf8qiBE-] found
Submit result: JkBIk6L9Hlo0R4N1NOQcpf8qiBE- has been confirmed
Track | CTDB Status
  1   | (17/17) Accurately ripped
  2   | (17/17) Accurately ripped
  3   | (17/17) Accurately ripped
  4   | (17/17) Accurately ripped
  5   | (17/17) Accurately ripped
  6   | (17/17) Accurately ripped
  7   | (17/17) Accurately ripped
  8   | (17/17) Accurately ripped
  9   | (17/17) Accurately ripped
 10   | (17/17) Accurately ripped
 11   | (17/17) Accurately ripped
 12   | (17/17) Accurately ripped
 13   | (17/17) Accurately ripped
 14   | (17/17) Accurately ripped

==== Log checksum F649F9B7642634A09F1C765D55AAD68FCBC5C0950131A911077F70265398EF6D ====

Код:
Код: Выделить всё
-----------------------

DON'T MODIFY THIS FILE

-----------------------

PERFORMER: auCDtect Task Manager, ver. 1.6.0 RC1 build 1.6.0.1
Copyright (c) 2008-2010 y-soft. All rights reserved
http:/y-soft.org

ANALYZER: auCDtect: CD records authenticity detector, version 0.8.2
Copyright (c) 2004 Oleg Berngardt. All rights reserved.
Copyright (c) 2004 Alexander Djourik. All rights reserved.

FILE: John Digweed - Re-Structured Mixed by John Digweed.flac
  Size: 552323264 Hash: 72DA18C03CCDD86A8BBFCFE89B104663 Accuracy: -m0
  Conclusion: CDDA 100%
  Signature: 785F572A2BBD0810E145F93AC3A013D5C723BEE9

Код:
Код: Выделить всё
REM GENRE Electronic
REM DATE 2015
REM DISCID C8118A0E
REM COMMENT "ExactAudioCopy v1.1"
PERFORMER "John Digweed"
TITLE "Re:Structured Mixed by John Digweed"
FILE "John Digweed - Re-Structured Mixed by John Digweed.flac" WAVE
  TRACK 01 AUDIO
    TITLE "Y.O.U.D."
    PERFORMER "Culoe De Song"
    INDEX 01 00:00:00
  TRACK 02 AUDIO
    TITLE "Track For Life"
    PERFORMER "John Digweed & Nick Muir"
    INDEX 01 05:51:22
  TRACK 03 AUDIO
    TITLE "Aquatonic (Alberto Ruiz Remix)"
    PERFORMER "John Digweed & Nick Muir"
    INDEX 01 10:39:02
  TRACK 04 AUDIO
    TITLE "Santiago (Joeski Remix)"
    PERFORMER "Bedrock"
    INDEX 01 15:05:57
  TRACK 05 AUDIO
    TITLE "Flippant"
    PERFORMER "Steve Parry"
    INDEX 01 20:26:36
  TRACK 06 AUDIO
    TITLE "Carpet Sneak"
    PERFORMER "Gel Abril"
    INDEX 01 27:21:53
  TRACK 07 AUDIO
    TITLE "Medicine Man (Pig & Dan Remix)"
    PERFORMER "Sian"
    INDEX 01 32:07:05
  TRACK 08 AUDIO
    TITLE "Emerald (BOg Remix)"
    PERFORMER "Bedrock"
    INDEX 01 36:18:73
  TRACK 09 AUDIO
    TITLE "Scorpion"
    PERFORMER "Dave Angel"
    INDEX 01 43:47:49
  TRACK 10 AUDIO
    TITLE "Lizard King (Julian Jeweil Remix)"
    PERFORMER "Pig & Dan"
    INDEX 01 49:17:19
  TRACK 11 AUDIO
    TITLE "Beautiful Strange (Montel Remix)"
    PERFORMER "Bedrock"
    INDEX 01 53:44:50
  TRACK 12 AUDIO
    TITLE "Pop Culture (KiNK Mix)"
    PERFORMER "DJ Dozia"
    INDEX 01 58:39:33
  TRACK 13 AUDIO
    TITLE "Fear and Self Loathing"
    PERFORMER "Clarian"
    INDEX 01 65:33:20
  TRACK 14 AUDIO
    TITLE "Twilight Zone"
    PERFORMER "Daniel Stefanik"
    INDEX 01 70:14:27
Время раздачи: Пн-Вс 8:00-20:00
#7
Код: Выделить всё
[b]Поглощение/вытеснение [/b]
[b]Только с согласия релизера[/b]
[b][u][i]Pashketan[/b][/i][/u]
 
Не забывайте говорить Спасибо. Не уходите с раздачи!   
Торрент: Зарегистрирован [04 июн 2016, 17:39] Скачать торрент
Скачать торрент
[ Размер 34.93 КБ / Просмотров 24 ]
Статус:
Проверен
 
.torrent скачан: 2 раз
Хэш: db9133c95510996b33b0bc38ef8fc0fc060f23bf
Размер: 1.49 ГБ (1 605 126 403 байт)
Стать Автором раздачи
 
 
Раздал: 100 ГБ
Скачал: 0 байт
Ратио: Seed.
Сообщения: 111480
Зарегистрирован: 09 апр 2015, 22:31


  • Похожие торренты
    Ответы
    Просмотры
    Последнее сообщение

Вернуться в House, Techno, Electro, Minimal (транзит Lossless)

Ресурс не предоставляет электронные версии произведений, а занимается лишь коллекционированием и каталогизацией ссылок, присылаемых и публикуемых на форуме нашими читателями. Если вы являетесь правообладателем какого-либо представленного материала и не желаете чтобы ссылка на него находилась в нашем каталоге, свяжитесь с нами и мы незамедлительно удалим её. Файлы для обмена на трекере предоставлены пользователями сайта, и администрация не несёт ответственности за их содержание. Просьба не заливать файлы, защищенные авторскими правами, а также файлы нелегального содержания!
cron