Война и мир Александра I (Галина Огурная) [2012-2014 г.г., Исторический, 4 x DVD5]

 
 Статистика раздачи 
Размер: 12.77 ГБ   |  Зарегистрирован: 31 май 2016, 22:48   |   .torrent скачан: 1 раз
Сидеров: 1  [ 0 байт/сек ]     Личеров: 0  [ 0 байт/сек ]  
  

Война и мир Александра I (Галина Огурная) [2012-2014 г.г., Исторический, 4 x DVD5]

Сообщение aLaVodka » 31 май 2016, 22:48

Война и мир Александра I (4 фильма)
Год выпуска: 2012-2014
Страна: Россия
Студия: Телеканал "Россия", фонд святителя Василия Великого, федеральное агентство по печати и массовым телекоммуникациям
Жанр: Исторический
Продолжительность: 4 ~ 04:07:24
Перевод: Не требуется
Русские субтитры: нет

Режиссер: Г. Огурная

Описание: Фильм создан к 200-летию победы России в Отечественной войне 1812 года.

Доп. информация: В роли рассказчика Валентин Клементьев. В фильме участвуют: принц Шарль Наполеон, принц Иоахим Мюрат, руководитель Музея Почетного Легиона генерал Ж-Ф. Колло д'Эскюри, потомки участников наполеоновских войск, а также известные европейские исследователи эпохи наполеоновских войн - Ж. Тюлар, М-П. Рей (Франция), Д. Ливен (Англия); отечественные историки - В. Безотосный, Л. Ивченко, Л. Мельникова, А. Подмазо, В. Файбисович. Использованы неизвестные архивные документы, эксклюзивные кадры исторической реконструкции сражений при Кульме и Лейпциге, съемки проводились в интерьерах дворцов России и Европы.

Сэмпл: https://www.sendspace.com/file/dqg02m

Тип релиза: DVD5
Контейнер: DVD-Video
Описание:
Драматургия фильма построена на противостоянии двух миров и двух мировоззрений.
С одной стороны Наполеон - узурпатор власти, революционный император, его интернациональная армия.
C другой - Император Александр I, внук Екатерины Великой, его военачальники, ополченцы и партизаны, весь русский народ, объединившийся вокруг Главы государства в своем стремлении защитить Отечество от врага.
В свете новых источников авторы фильма отвечают на вопросы: военный гений Наполеона – миф или реальность?
Что он вез в своем обозе, напав на Россию, и зачем?
Почему Русская армия отступала на первом этапе войны?
Почему битву при Бородине празднуют как победу и русские, и французы?
Кто и когда подарил Александру I серого коня, на котором он потом въехал в Париж?

Бонусы: Отсутствуют.

Меню: Отсутствует.

Разбиение по главам: есть

Качество: DVD5
Формат: DVD video
Видео кодек: MPEG2
Аудио кодек: AC3
Видео: 7148 Кбит/сек, PAL 720*576 (4:3), 25,000 кадров/сек
Аудио: Русский, 192 Кбит/сек, 48,0 КГц, 2 канала, AC-3
Код: Выделить всё
Title: Фильм 1. Наполеон против России. Нашествие
Size: 3.71 Gb ( 3 894 654,00 KBytes ) - DVD-5
Enabled regions: 1, 2, 3, 4, 5, 6, 7, 8

VTS_01 :
  Play Length: 01:11:35
  Video: PAL 4:3 (720x576) VBR
  Audio:
      Not specified (Dolby AC3, 2 ch)

* Menus Information *

VIDEO_TS Menu
Video:
      PAL 4:3 (720x576) VBR
English Language Unit :
      Title Menu

VTS_01 Menu
Video:
      NTSC 4:3 (720x480) VBR
      Auto Pan&Scan, Auto Letterboxed
English Language Unit :
      Root Menu
Код: Выделить всё
Общее
Полное имя                               : L:\Monar.ru\Видео\Документальные фильмы\История России и мира\Война и мир Александра I\Фильм 1. Наполеон против России. Нашествие\VIDEO_TS\VIDEO_TS.BUP
Формат                                   : DVD Video
Профиль формата                          : Menu
Размер файла                             : 14,0 Кбайт
Режим общего битрейта                    : Переменный

Видео
Идентификатор                            : 224 (0xE0)
Формат                                   : MPEG Video
Версия формата                           : Version 2
Вид битрейта                             : Переменный
Ширина                                   : 720 пикселей
Высота                                   : 576 пикселей
Соотношение сторон                       : 4:3
Частота кадров                           : 25,000 кадров/сек
Стандарт вещания                         : PAL
Метод сжатия                             : С потерями

Текст
Формат                                   : RLE
Формат/Информация                        : Run-length encoding
Битовая глубина                          : 2 бит

Общее
Полное имя                               : L:\Monar.ru\Видео\Документальные фильмы\История России и мира\Война и мир Александра I\Фильм 1. Наполеон против России. Нашествие\VIDEO_TS\VIDEO_TS.IFO
Формат                                   : DVD Video
Профиль формата                          : Menu
Размер файла                             : 14,0 Кбайт
Режим общего битрейта                    : Переменный

Видео
Идентификатор                            : 224 (0xE0)
Формат                                   : MPEG Video
Версия формата                           : Version 2
Вид битрейта                             : Переменный
Ширина                                   : 720 пикселей
Высота                                   : 576 пикселей
Соотношение сторон                       : 4:3
Частота кадров                           : 25,000 кадров/сек
Стандарт вещания                         : PAL
Метод сжатия                             : С потерями

Текст
Формат                                   : RLE
Формат/Информация                        : Run-length encoding
Битовая глубина                          : 2 бит

Общее
Полное имя                               : L:\Monar.ru\Видео\Документальные фильмы\История России и мира\Война и мир Александра I\Фильм 1. Наполеон против России. Нашествие\VIDEO_TS\VIDEO_TS.VOB
Формат                                   : MPEG-PS
Размер файла                             : 14,0 Кбайт
Продолжительность                        : 40 мс.
Режим общего битрейта                    : Переменный
Общий поток                              : 2867 Кбит/сек

Видео
Идентификатор                            : 224 (0xE0)
Формат                                   : MPEG Video
Версия формата                           : Version 2
Профиль формата                          : [email protected]
Параметр BVOP формата                    : Нет
Параметр матрицы формата                 : По умолчанию
Продолжительность                        : 40 мс.
Вид битрейта                             : Переменный
Максимальный битрейт                     : 8300 Кбит/сек
Ширина                                   : 720 пикселей
Высота                                   : 576 пикселей
Соотношение сторон                       : 4:3
Частота кадров                           : 25,000 кадров/сек
Стандарт вещания                         : PAL
Цветовое пространство                    : YUV
Субдискретизация насыщенности            : 4:2:0
Битовая глубина                          : 8 бит
Тип развёртки                            : Прогрессивная
Метод сжатия                             : С потерями
Временной код первого кадра              : 00:00:00:00
Оригинал временного кода                 : Group of pictures header

Текст
Идентификатор                            : 189 (0xBD)-32 (0x20)
Формат                                   : RLE
Формат/Информация                        : Run-length encoding
Режим смешивания                         : DVD-Video

Меню

Общее
Полное имя                               : L:\Monar.ru\Видео\Документальные фильмы\История России и мира\Война и мир Александра I\Фильм 1. Наполеон против России. Нашествие\VIDEO_TS\VTS_01_0.BUP
Формат                                   : DVD Video
Профиль формата                          : Program
Размер файла                             : 52,0 Кбайт
Продолжительность                        : 1 ч. 11 м.
Режим общего битрейта                    : Переменный
Общий поток                              : 99 бит/сек

Видео
Идентификатор                            : 224 (0xE0)
Формат                                   : MPEG Video
Версия формата                           : Version 2
Продолжительность                        : 1 ч. 11 м.
Вид битрейта                             : Переменный
Ширина                                   : 720 пикселей
Высота                                   : 576 пикселей
Соотношение сторон                       : 4:3
Частота кадров                           : 25,000 кадров/сек
Стандарт вещания                         : PAL
Метод сжатия                             : С потерями

Аудио
Идентификатор                            : 128 (0x80)
Формат                                   : AC-3
Формат/Информация                        : Audio Coding 3
Продолжительность                        : 1 ч. 11 м.
Каналы                                   : 2 канала
Частота                                  : 48,0 КГц
Метод сжатия                             : С потерями

Меню
Продолжительность                        : 1 ч. 11 м.
00:00:00.000                             : Chapter 1
00:05:00.400                             : Chapter 2
00:10:00.400                             : Chapter 3
00:15:00.400                             : Chapter 4
00:20:00.400                             : Chapter 5
00:25:00.400                             : Chapter 6
00:30:00.400                             : Chapter 7
00:35:00.400                             : Chapter 8
00:40:00.400                             : Chapter 9
00:45:00.400                             : Chapter 10
00:50:00.400                             : Chapter 11
00:55:00.400                             : Chapter 12
01:00:00.400                             : Chapter 13
01:05:00.400                             : Chapter 14
01:10:00.400                             : Chapter 15
List (Audio)                             : 0

Общее
Полное имя                               : L:\Monar.ru\Видео\Документальные фильмы\История России и мира\Война и мир Александра I\Фильм 1. Наполеон против России. Нашествие\VIDEO_TS\VTS_01_0.IFO
Формат                                   : DVD Video
Профиль формата                          : Program
Размер файла                             : 52,0 Кбайт
Продолжительность                        : 1 ч. 11 м.
Режим общего битрейта                    : Переменный
Общий поток                              : 99 бит/сек

Видео
Идентификатор                            : 224 (0xE0)
Формат                                   : MPEG Video
Версия формата                           : Version 2
Продолжительность                        : 1 ч. 11 м.
Вид битрейта                             : Переменный
Ширина                                   : 720 пикселей
Высота                                   : 576 пикселей
Соотношение сторон                       : 4:3
Частота кадров                           : 25,000 кадров/сек
Стандарт вещания                         : PAL
Метод сжатия                             : С потерями

Аудио
Идентификатор                            : 128 (0x80)
Формат                                   : AC-3
Формат/Информация                        : Audio Coding 3
Продолжительность                        : 1 ч. 11 м.
Каналы                                   : 2 канала
Частота                                  : 48,0 КГц
Метод сжатия                             : С потерями

Меню
Продолжительность                        : 1 ч. 11 м.
00:00:00.000                             : Chapter 1
00:05:00.400                             : Chapter 2
00:10:00.400                             : Chapter 3
00:15:00.400                             : Chapter 4
00:20:00.400                             : Chapter 5
00:25:00.400                             : Chapter 6
00:30:00.400                             : Chapter 7
00:35:00.400                             : Chapter 8
00:40:00.400                             : Chapter 9
00:45:00.400                             : Chapter 10
00:50:00.400                             : Chapter 11
00:55:00.400                             : Chapter 12
01:00:00.400                             : Chapter 13
01:05:00.400                             : Chapter 14
01:10:00.400                             : Chapter 15
List (Audio)                             : 0

Общее
Полное имя                               : L:\Monar.ru\Видео\Документальные фильмы\История России и мира\Война и мир Александра I\Фильм 1. Наполеон против России. Нашествие\VIDEO_TS\VTS_01_1.VOB
Формат                                   : MPEG-PS
Размер файла                             : 1008 Мбайт
Продолжительность                        : 18 м.
Режим общего битрейта                    : Переменный
Общий поток                              : 7489 Кбит/сек

Видео
Идентификатор                            : 224 (0xE0)
Формат                                   : MPEG Video
Версия формата                           : Version 2
Профиль формата                          : [email protected]
Параметр BVOP формата                    : Да
Параметр матрицы формата                 : По умолчанию
Параметр GOP формата                     : M=3, N=12
Format_Settings_PictureStructure         : Frame
Продолжительность                        : 18 м.
Вид битрейта                             : Переменный
Битрейт                                  : 7148 Кбит/сек
Максимальный битрейт                     : 8000 Кбит/сек
Ширина                                   : 720 пикселей
Высота                                   : 576 пикселей
Соотношение сторон                       : 4:3
Частота кадров                           : 25,000 кадров/сек
Стандарт вещания                         : PAL
Цветовое пространство                    : YUV
Субдискретизация насыщенности            : 4:2:0
Битовая глубина                          : 8 бит
Тип развёртки                            : Чересстрочная
Порядок развёртки                        : Верхнее поле первое
Метод сжатия                             : С потерями
Бит/(Пиксели*Кадры)                      : 0.689
Временной код первого кадра              : 00:00:00:00
Оригинал временного кода                 : Group of pictures header
Размер потока                            : 962 Мбайт (95%)

Аудио
Идентификатор                            : 189 (0xBD)-128 (0x80)
Формат                                   : AC-3
Формат/Информация                        : Audio Coding 3
Расширение режима                        : CM (complete main)
Параметр Endianness формата              : Big
Режим смешивания                         : DVD-Video
Продолжительность                        : 18 м.
Вид битрейта                             : Постоянный
Битрейт                                  : 192 Кбит/сек
Каналы                                   : 2 канала
Расположение каналов                     : Front: L R
Частота                                  : 48,0 КГц
Частота кадров                           : 31,250 кадров/сек (1536 spf)
Метод сжатия                             : С потерями
Размер потока                            : 25,8 Мбайт (3%)

Меню

Общее
Полное имя                               : L:\Monar.ru\Видео\Документальные фильмы\История России и мира\Война и мир Александра I\Фильм 1. Наполеон против России. Нашествие\VIDEO_TS\VTS_01_2.VOB
Формат                                   : MPEG-PS
Размер файла                             : 1008 Мбайт
Продолжительность                        : 18 м.
Режим общего битрейта                    : Переменный
Общий поток                              : 7595 Кбит/сек

Видео
Идентификатор                            : 224 (0xE0)
Формат                                   : MPEG Video
Версия формата                           : Version 2
Профиль формата                          : [email protected]
Параметр BVOP формата                    : Да
Параметр матрицы формата                 : По умолчанию
Параметр GOP формата                     : M=3, N=12
Format_Settings_PictureStructure         : Frame
Продолжительность                        : 18 м.
Вид битрейта                             : Переменный
Битрейт                                  : 7252 Кбит/сек
Максимальный битрейт                     : 8000 Кбит/сек
Ширина                                   : 720 пикселей
Высота                                   : 576 пикселей
Соотношение сторон                       : 4:3
Частота кадров                           : 25,000 кадров/сек
Стандарт вещания                         : PAL
Цветовое пространство                    : YUV
Субдискретизация насыщенности            : 4:2:0
Битовая глубина                          : 8 бит
Тип развёртки                            : Чересстрочная
Порядок развёртки                        : Верхнее поле первое
Метод сжатия                             : С потерями
Бит/(Пиксели*Кадры)                      : 0.699
Временной код первого кадра              : 00:18:49:09
Оригинал временного кода                 : Group of pictures header
Размер потока                            : 963 Мбайт (95%)

Аудио
Идентификатор                            : 189 (0xBD)-128 (0x80)
Формат                                   : AC-3
Формат/Информация                        : Audio Coding 3
Расширение режима                        : CM (complete main)
Параметр Endianness формата              : Big
Режим смешивания                         : DVD-Video
Продолжительность                        : 18 м.
Вид битрейта                             : Постоянный
Битрейт                                  : 192 Кбит/сек
Каналы                                   : 2 канала
Расположение каналов                     : Front: L R
Частота                                  : 48,0 КГц
Частота кадров                           : 31,250 кадров/сек (1536 spf)
Метод сжатия                             : С потерями
Задержка видео                           : 48 мс.
Размер потока                            : 25,5 Мбайт (3%)

Меню

Общее
Полное имя                               : L:\Monar.ru\Видео\Документальные фильмы\История России и мира\Война и мир Александра I\Фильм 1. Наполеон против России. Нашествие\VIDEO_TS\VTS_01_3.VOB
Формат                                   : MPEG-PS
Размер файла                             : 1008 Мбайт
Продолжительность                        : 18 м.
Режим общего битрейта                    : Переменный
Общий поток                              : 7673 Кбит/сек

Видео
Идентификатор                            : 224 (0xE0)
Формат                                   : MPEG Video
Версия формата                           : Version 2
Профиль формата                          : [email protected]
Параметр BVOP формата                    : Да
Параметр матрицы формата                 : По умолчанию
Параметр GOP формата                     : M=3, N=12
Format_Settings_PictureStructure         : Frame
Продолжительность                        : 18 м.
Вид битрейта                             : Переменный
Битрейт                                  : 7328 Кбит/сек
Максимальный битрейт                     : 8000 Кбит/сек
Ширина                                   : 720 пикселей
Высота                                   : 576 пикселей
Соотношение сторон                       : 4:3
Частота кадров                           : 25,000 кадров/сек
Стандарт вещания                         : PAL
Цветовое пространство                    : YUV
Субдискретизация насыщенности            : 4:2:0
Битовая глубина                          : 8 бит
Тип развёртки                            : Чересстрочная
Порядок развёртки                        : Верхнее поле первое
Метод сжатия                             : С потерями
Бит/(Пиксели*Кадры)                      : 0.707
Временной код первого кадра              : 00:37:22:24
Оригинал временного кода                 : Group of pictures header
Размер потока                            : 963 Мбайт (96%)

Аудио
Идентификатор                            : 189 (0xBD)-128 (0x80)
Формат                                   : AC-3
Формат/Информация                        : Audio Coding 3
Расширение режима                        : CM (complete main)
Параметр Endianness формата              : Big
Режим смешивания                         : DVD-Video
Продолжительность                        : 18 м.
Вид битрейта                             : Постоянный
Битрейт                                  : 192 Кбит/сек
Каналы                                   : 2 канала
Расположение каналов                     : Front: L R
Частота                                  : 48,0 КГц
Частота кадров                           : 31,250 кадров/сек (1536 spf)
Метод сжатия                             : С потерями
Задержка видео                           : 48 мс.
Размер потока                            : 25,2 Мбайт (3%)

Меню

Общее
Полное имя                               : L:\Monar.ru\Видео\Документальные фильмы\История России и мира\Война и мир Александра I\Фильм 1. Наполеон против России. Нашествие\VIDEO_TS\VTS_01_4.VOB
Формат                                   : MPEG-PS
Размер файла                             : 779 Мбайт
Продолжительность                        : 15 м.
Режим общего битрейта                    : Переменный
Общий поток                              : 6871 Кбит/сек

Видео
Идентификатор                            : 224 (0xE0)
Формат                                   : MPEG Video
Версия формата                           : Version 2
Профиль формата                          : [email protected]
Параметр BVOP формата                    : Да
Параметр матрицы формата                 : По умолчанию
Параметр GOP формата                     : M=3, N=12
Format_Settings_PictureStructure         : Frame
Продолжительность                        : 15 м.
Вид битрейта                             : Переменный
Битрейт                                  : 6542 Кбит/сек
Максимальный битрейт                     : 8000 Кбит/сек
Ширина                                   : 720 пикселей
Высота                                   : 576 пикселей
Соотношение сторон                       : 4:3
Частота кадров                           : 25,000 кадров/сек
Стандарт вещания                         : PAL
Цветовое пространство                    : YUV
Субдискретизация насыщенности            : 4:2:0
Битовая глубина                          : 8 бит
Тип развёртки                            : Чересстрочная
Порядок развёртки                        : Верхнее поле первое
Метод сжатия                             : С потерями
Бит/(Пиксели*Кадры)                      : 0.631
Временной код первого кадра              : 00:55:45:01
Оригинал временного кода                 : Group of pictures header
Размер потока                            : 741 Мбайт (95%)

Аудио
Идентификатор                            : 189 (0xBD)-128 (0x80)
Формат                                   : AC-3
Формат/Информация                        : Audio Coding 3
Расширение режима                        : CM (complete main)
Параметр Endianness формата              : Big
Режим смешивания                         : DVD-Video
Продолжительность                        : 15 м.
Вид битрейта                             : Постоянный
Битрейт                                  : 192 Кбит/сек
Каналы                                   : 2 канала
Расположение каналов                     : Front: L R
Частота                                  : 48,0 КГц
Частота кадров                           : 31,250 кадров/сек (1536 spf)
Метод сжатия                             : С потерями
Задержка видео                           : 48 мс.
Размер потока                            : 21,8 Мбайт (3%)

Меню
#77Описание:
Бородинская битва и занятие Москвы не принесли Наполеону желаемого результата – он так и не дождался мира.
Хитроумная тактика Кутузова и разработанный Александром I план привели к полному разгрому захватчиков. В конце декабря 1812 года остатки Великой армии покинули территорию Российской Империи. Отечественная война фактически закончилась.
В свете новых источников авторы фильма отвечают на ряд интересных вопросов.
Почему Кутузов оставил Москву?
Кто в действительности сжег Первопрестольную?
Фальшивые ассигнации Наполеона – миф или реальность?
Откуда пошло выражение "сесть в лужу"?
Действительно ли "генерал Мороз" помог русским победить Великую армию Наполеона?

Бонусы: Отсутствуют.

Меню: Отсутствует.

Разбиение по главам: есть

Качество: DVD5
Формат: DVD video
Видео кодек: MPEG2
Аудио кодек: AC3
Видео: 7159 Кбит/сек, PAL 720*576 (4:3), 25,000 кадров/сек
Аудио: Русский, 192 Кбит/сек, 48,0 КГц, 2 канала, AC-3
Код: Выделить всё
Title: Фильм 2. Наполеон против России. Изгнание
Size: 3.71 Gb ( 3 894 196,00 KBytes ) - DVD-5
Enabled regions: 1, 2, 3, 4, 5, 6, 7, 8

VTS_01 :
  Play Length: 01:11:37
  Video: PAL 4:3 (720x576) VBR
  Audio:
      Not specified (Dolby AC3, 2 ch)

* Menus Information *

VIDEO_TS Menu
Video:
      PAL 4:3 (720x576) VBR
English Language Unit :
      Title Menu

VTS_01 Menu
Video:
      NTSC 4:3 (720x480) VBR
      Auto Pan&Scan, Auto Letterboxed
English Language Unit :
      Root Menu
Код: Выделить всё
Общее
Полное имя                               : L:\Monar.ru\Видео\Документальные фильмы\История России и мира\Война и мир Александра I\Фильм 2. Наполеон против России. Изгнание\VIDEO_TS\VIDEO_TS.BUP
Формат                                   : DVD Video
Профиль формата                          : Menu
Размер файла                             : 14,0 Кбайт
Режим общего битрейта                    : Переменный

Видео
Идентификатор                            : 224 (0xE0)
Формат                                   : MPEG Video
Версия формата                           : Version 2
Вид битрейта                             : Переменный
Ширина                                   : 720 пикселей
Высота                                   : 576 пикселей
Соотношение сторон                       : 4:3
Частота кадров                           : 25,000 кадров/сек
Стандарт вещания                         : PAL
Метод сжатия                             : С потерями

Текст
Формат                                   : RLE
Формат/Информация                        : Run-length encoding
Битовая глубина                          : 2 бит

Общее
Полное имя                               : L:\Monar.ru\Видео\Документальные фильмы\История России и мира\Война и мир Александра I\Фильм 2. Наполеон против России. Изгнание\VIDEO_TS\VIDEO_TS.IFO
Формат                                   : DVD Video
Профиль формата                          : Menu
Размер файла                             : 14,0 Кбайт
Режим общего битрейта                    : Переменный

Видео
Идентификатор                            : 224 (0xE0)
Формат                                   : MPEG Video
Версия формата                           : Version 2
Вид битрейта                             : Переменный
Ширина                                   : 720 пикселей
Высота                                   : 576 пикселей
Соотношение сторон                       : 4:3
Частота кадров                           : 25,000 кадров/сек
Стандарт вещания                         : PAL
Метод сжатия                             : С потерями

Текст
Формат                                   : RLE
Формат/Информация                        : Run-length encoding
Битовая глубина                          : 2 бит

Общее
Полное имя                               : L:\Monar.ru\Видео\Документальные фильмы\История России и мира\Война и мир Александра I\Фильм 2. Наполеон против России. Изгнание\VIDEO_TS\VIDEO_TS.VOB
Формат                                   : MPEG-PS
Размер файла                             : 14,0 Кбайт
Продолжительность                        : 40 мс.
Режим общего битрейта                    : Переменный
Общий поток                              : 2867 Кбит/сек

Видео
Идентификатор                            : 224 (0xE0)
Формат                                   : MPEG Video
Версия формата                           : Version 2
Профиль формата                          : [email protected]
Параметр BVOP формата                    : Нет
Параметр матрицы формата                 : По умолчанию
Продолжительность                        : 40 мс.
Вид битрейта                             : Переменный
Максимальный битрейт                     : 8300 Кбит/сек
Ширина                                   : 720 пикселей
Высота                                   : 576 пикселей
Соотношение сторон                       : 4:3
Частота кадров                           : 25,000 кадров/сек
Стандарт вещания                         : PAL
Цветовое пространство                    : YUV
Субдискретизация насыщенности            : 4:2:0
Битовая глубина                          : 8 бит
Тип развёртки                            : Прогрессивная
Метод сжатия                             : С потерями
Временной код первого кадра              : 00:00:00:00
Оригинал временного кода                 : Group of pictures header

Текст
Идентификатор                            : 189 (0xBD)-32 (0x20)
Формат                                   : RLE
Формат/Информация                        : Run-length encoding
Режим смешивания                         : DVD-Video

Меню

Общее
Полное имя                               : L:\Monar.ru\Видео\Документальные фильмы\История России и мира\Война и мир Александра I\Фильм 2. Наполеон против России. Изгнание\VIDEO_TS\VTS_01_0.BUP
Формат                                   : DVD Video
Профиль формата                          : Program
Размер файла                             : 52,0 Кбайт
Продолжительность                        : 1 ч. 11 м.
Режим общего битрейта                    : Переменный
Общий поток                              : 99 бит/сек

Видео
Идентификатор                            : 224 (0xE0)
Формат                                   : MPEG Video
Версия формата                           : Version 2
Продолжительность                        : 1 ч. 11 м.
Вид битрейта                             : Переменный
Ширина                                   : 720 пикселей
Высота                                   : 576 пикселей
Соотношение сторон                       : 4:3
Частота кадров                           : 25,000 кадров/сек
Стандарт вещания                         : PAL
Метод сжатия                             : С потерями

Аудио
Идентификатор                            : 128 (0x80)
Формат                                   : AC-3
Формат/Информация                        : Audio Coding 3
Продолжительность                        : 1 ч. 11 м.
Каналы                                   : 2 канала
Частота                                  : 48,0 КГц
Метод сжатия                             : С потерями

Меню
Продолжительность                        : 1 ч. 11 м.
00:00:00.000                             : Chapter 1
00:05:00.400                             : Chapter 2
00:10:00.400                             : Chapter 3
00:15:00.400                             : Chapter 4
00:20:00.400                             : Chapter 5
00:25:00.400                             : Chapter 6
00:30:00.400                             : Chapter 7
00:35:00.400                             : Chapter 8
00:40:00.400                             : Chapter 9
00:45:00.400                             : Chapter 10
00:50:00.400                             : Chapter 11
00:55:00.400                             : Chapter 12
01:00:00.400                             : Chapter 13
01:05:00.400                             : Chapter 14
01:10:00.400                             : Chapter 15
List (Audio)                             : 0

Общее
Полное имя                               : L:\Monar.ru\Видео\Документальные фильмы\История России и мира\Война и мир Александра I\Фильм 2. Наполеон против России. Изгнание\VIDEO_TS\VTS_01_0.IFO
Формат                                   : DVD Video
Профиль формата                          : Program
Размер файла                             : 52,0 Кбайт
Продолжительность                        : 1 ч. 11 м.
Режим общего битрейта                    : Переменный
Общий поток                              : 99 бит/сек

Видео
Идентификатор                            : 224 (0xE0)
Формат                                   : MPEG Video
Версия формата                           : Version 2
Продолжительность                        : 1 ч. 11 м.
Вид битрейта                             : Переменный
Ширина                                   : 720 пикселей
Высота                                   : 576 пикселей
Соотношение сторон                       : 4:3
Частота кадров                           : 25,000 кадров/сек
Стандарт вещания                         : PAL
Метод сжатия                             : С потерями

Аудио
Идентификатор                            : 128 (0x80)
Формат                                   : AC-3
Формат/Информация                        : Audio Coding 3
Продолжительность                        : 1 ч. 11 м.
Каналы                                   : 2 канала
Частота                                  : 48,0 КГц
Метод сжатия                             : С потерями

Меню
Продолжительность                        : 1 ч. 11 м.
00:00:00.000                             : Chapter 1
00:05:00.400                             : Chapter 2
00:10:00.400                             : Chapter 3
00:15:00.400                             : Chapter 4
00:20:00.400                             : Chapter 5
00:25:00.400                             : Chapter 6
00:30:00.400                             : Chapter 7
00:35:00.400                             : Chapter 8
00:40:00.400                             : Chapter 9
00:45:00.400                             : Chapter 10
00:50:00.400                             : Chapter 11
00:55:00.400                             : Chapter 12
01:00:00.400                             : Chapter 13
01:05:00.400                             : Chapter 14
01:10:00.400                             : Chapter 15
List (Audio)                             : 0

Общее
Полное имя                               : L:\Monar.ru\Видео\Документальные фильмы\История России и мира\Война и мир Александра I\Фильм 2. Наполеон против России. Изгнание\VIDEO_TS\VTS_01_1.VOB
Формат                                   : MPEG-PS
Размер файла                             : 1008 Мбайт
Продолжительность                        : 18 м.
Режим общего битрейта                    : Переменный
Общий поток                              : 7500 Кбит/сек

Видео
Идентификатор                            : 224 (0xE0)
Формат                                   : MPEG Video
Версия формата                           : Version 2
Профиль формата                          : [email protected]
Параметр BVOP формата                    : Да
Параметр матрицы формата                 : По умолчанию
Параметр GOP формата                     : M=3, N=12
Format_Settings_PictureStructure         : Frame
Продолжительность                        : 18 м.
Вид битрейта                             : Переменный
Битрейт                                  : 7159 Кбит/сек
Максимальный битрейт                     : 8000 Кбит/сек
Ширина                                   : 720 пикселей
Высота                                   : 576 пикселей
Соотношение сторон                       : 4:3
Частота кадров                           : 25,000 кадров/сек
Стандарт вещания                         : PAL
Цветовое пространство                    : YUV
Субдискретизация насыщенности            : 4:2:0
Битовая глубина                          : 8 бит
Тип развёртки                            : Чересстрочная
Порядок развёртки                        : Верхнее поле первое
Метод сжатия                             : С потерями
Бит/(Пиксели*Кадры)                      : 0.691
Временной код первого кадра              : 00:00:00:00
Оригинал временного кода                 : Group of pictures header
Размер потока                            : 962 Мбайт (95%)

Аудио
Идентификатор                            : 189 (0xBD)-128 (0x80)
Формат                                   : AC-3
Формат/Информация                        : Audio Coding 3
Расширение режима                        : CM (complete main)
Параметр Endianness формата              : Big
Режим смешивания                         : DVD-Video
Продолжительность                        : 18 м.
Вид битрейта                             : Постоянный
Битрейт                                  : 192 Кбит/сек
Каналы                                   : 2 канала
Расположение каналов                     : Front: L R
Частота                                  : 48,0 КГц
Частота кадров                           : 31,250 кадров/сек (1536 spf)
Метод сжатия                             : С потерями
Размер потока                            : 25,8 Мбайт (3%)

Меню

Общее
Полное имя                               : L:\Monar.ru\Видео\Документальные фильмы\История России и мира\Война и мир Александра I\Фильм 2. Наполеон против России. Изгнание\VIDEO_TS\VTS_01_2.VOB
Формат                                   : MPEG-PS
Размер файла                             : 1008 Мбайт
Продолжительность                        : 19 м.
Режим общего битрейта                    : Переменный
Общий поток                              : 7413 Кбит/сек

Видео
Идентификатор                            : 224 (0xE0)
Формат                                   : MPEG Video
Версия формата                           : Version 2
Профиль формата                          : [email protected]
Параметр BVOP формата                    : Да
Параметр матрицы формата                 : По умолчанию
Параметр GOP формата                     : M=3, N=12
Format_Settings_PictureStructure         : Frame
Продолжительность                        : 19 м.
Вид битрейта                             : Переменный
Битрейт                                  : 7073 Кбит/сек
Максимальный битрейт                     : 8000 Кбит/сек
Ширина                                   : 720 пикселей
Высота                                   : 576 пикселей
Соотношение сторон                       : 4:3
Частота кадров                           : 25,000 кадров/сек
Стандарт вещания                         : PAL
Цветовое пространство                    : YUV
Субдискретизация насыщенности            : 4:2:0
Битовая глубина                          : 8 бит
Тип развёртки                            : Чересстрочная
Порядок развёртки                        : Верхнее поле первое
Метод сжатия                             : С потерями
Бит/(Пиксели*Кадры)                      : 0.682
Временной код первого кадра              : 00:18:47:11
Оригинал временного кода                 : Group of pictures header
Размер потока                            : 962 Мбайт (95%)

Аудио
Идентификатор                            : 189 (0xBD)-128 (0x80)
Формат                                   : AC-3
Формат/Информация                        : Audio Coding 3
Расширение режима                        : CM (complete main)
Параметр Endianness формата              : Big
Режим смешивания                         : DVD-Video
Продолжительность                        : 19 м.
Вид битрейта                             : Постоянный
Битрейт                                  : 192 Кбит/сек
Каналы                                   : 2 канала
Расположение каналов                     : Front: L R
Частота                                  : 48,0 КГц
Частота кадров                           : 31,250 кадров/сек (1536 spf)
Метод сжатия                             : С потерями
Задержка видео                           : 48 мс.
Размер потока                            : 26,1 Мбайт (3%)

Меню

Общее
Полное имя                               : L:\Monar.ru\Видео\Документальные фильмы\История России и мира\Война и мир Александра I\Фильм 2. Наполеон против России. Изгнание\VIDEO_TS\VTS_01_3.VOB
Формат                                   : MPEG-PS
Размер файла                             : 1008 Мбайт
Продолжительность                        : 18 м.
Режим общего битрейта                    : Переменный
Общий поток                              : 7561 Кбит/сек

Видео
Идентификатор                            : 224 (0xE0)
Формат                                   : MPEG Video
Версия формата                           : Version 2
Профиль формата                          : [email protected]
Параметр BVOP формата                    : Да
Параметр матрицы формата                 : По умолчанию
Параметр GOP формата                     : M=3, N=12
Format_Settings_PictureStructure         : Frame
Продолжительность                        : 18 м.
Вид битрейта                             : Переменный
Битрейт                                  : 7218 Кбит/сек
Максимальный битрейт                     : 8000 Кбит/сек
Ширина                                   : 720 пикселей
Высота                                   : 576 пикселей
Соотношение сторон                       : 4:3
Частота кадров                           : 25,000 кадров/сек
Стандарт вещания                         : PAL
Цветовое пространство                    : YUV
Субдискретизация насыщенности            : 4:2:0
Битовая глубина                          : 8 бит
Тип развёртки                            : Чересстрочная
Порядок развёртки                        : Верхнее поле первое
Метод сжатия                             : С потерями
Бит/(Пиксели*Кадры)                      : 0.696
Временной код первого кадра              : 00:37:48:10
Оригинал временного кода                 : Group of pictures header
Размер потока                            : 963 Мбайт (95%)

Аудио
Идентификатор                            : 189 (0xBD)-128 (0x80)
Формат                                   : AC-3
Формат/Информация                        : Audio Coding 3
Расширение режима                        : CM (complete main)
Параметр Endianness формата              : Big
Режим смешивания                         : DVD-Video
Продолжительность                        : 18 м.
Вид битрейта                             : Постоянный
Битрейт                                  : 192 Кбит/сек
Каналы                                   : 2 канала
Расположение каналов                     : Front: L R
Частота                                  : 48,0 КГц
Частота кадров                           : 31,250 кадров/сек (1536 spf)
Метод сжатия                             : С потерями
Задержка видео                           : 48 мс.
Размер потока                            : 25,6 Мбайт (3%)

Меню

Общее
Полное имя                               : L:\Monar.ru\Видео\Документальные фильмы\История России и мира\Война и мир Александра I\Фильм 2. Наполеон против России. Изгнание\VIDEO_TS\VTS_01_4.VOB
Формат                                   : MPEG-PS
Размер файла                             : 778 Мбайт
Продолжительность                        : 15 м.
Режим общего битрейта                    : Переменный
Общий поток                              : 7174 Кбит/сек

Видео
Идентификатор                            : 224 (0xE0)
Формат                                   : MPEG Video
Версия формата                           : Version 2
Профиль формата                          : [email protected]
Параметр BVOP формата                    : Да
Параметр матрицы формата                 : По умолчанию
Параметр GOP формата                     : M=3, N=12
Format_Settings_PictureStructure         : Frame
Продолжительность                        : 15 м.
Вид битрейта                             : Переменный
Битрейт                                  : 6839 Кбит/сек
Максимальный битрейт                     : 8000 Кбит/сек
Ширина                                   : 720 пикселей
Высота                                   : 576 пикселей
Соотношение сторон                       : 4:3
Частота кадров                           : 25,000 кадров/сек
Стандарт вещания                         : PAL
Цветовое пространство                    : YUV
Субдискретизация насыщенности            : 4:2:0
Битовая глубина                          : 8 бит
Тип развёртки                            : Чересстрочная
Порядок развёртки                        : Верхнее поле первое
Метод сжатия                             : С потерями
Бит/(Пиксели*Кадры)                      : 0.660
Временной код первого кадра              : 00:56:27:07
Оригинал временного кода                 : Group of pictures header
Размер потока                            : 742 Мбайт (95%)

Аудио
Идентификатор                            : 189 (0xBD)-128 (0x80)
Формат                                   : AC-3
Формат/Информация                        : Audio Coding 3
Расширение режима                        : CM (complete main)
Параметр Endianness формата              : Big
Режим смешивания                         : DVD-Video
Продолжительность                        : 15 м.
Вид битрейта                             : Постоянный
Битрейт                                  : 192 Кбит/сек
Каналы                                   : 2 канала
Расположение каналов                     : Front: L R
Частота                                  : 48,0 КГц
Частота кадров                           : 31,250 кадров/сек (1536 spf)
Метод сжатия                             : С потерями
Задержка видео                           : 48 мс.
Размер потока                            : 20,8 Мбайт (3%)

Меню
#77Описание:
Третий фильм документального цикла повествует о роли России в окончательном разгроме Наполеона и освобождении Европы.
Авторы фильма рассказывают о том:
- где было захоронено сердце М.И. Кутузова;
- кто и за что был награжден знаменитым прусским орденом "Кульмский крест";
- что такое "Битва народов";
- кто спас трех союзных монархов под Лейпцигом от неминуемого пленения;
- что пили казаки на подступах к Парижу, в боях у Фер-Шампенуаза,;
- каково на самом деле происхождение ныне известного всем слова "бистро"
- чего боялись парижане при входе русских войск в Париж;
- кто спас от разрушения Вандомскую колонну;
- почему именно на площади Конкорд в Париже был устроен православный молебен на Пасху
- кто решил судьбу Наполеона.

Бонусы: Отсутствуют.

Меню: Отсутствует.

Разбиение по главам: есть

Качество: DVD5
Формат: DVD video
Видео кодек: MPEG2
Аудио кодек: AC3
Видео: 7003 Кбит/сек, PAL 720*576 (4:9), 25,000 кадров/сек
Аудио: Русский, 192 Кбит/сек, 48,0 КГц, 2 канала, AC-3
Код: Выделить всё
Title: Фильм 3. Ура! Мы в Париже!
Size: 2.73 Gb ( 2 859 002 KBytes ) - DVD-5
Enabled regions: 1, 2, 3, 4, 5, 6, 7, 8

VTS_01 :
  Play Length: 00:54:18
  Video: PAL 16:9 (720x576) VBR, Auto Pan&Scan, Auto Letterboxed
  Audio:
      Not specified (Dolby AC3, 2 ch)

Menu Video:
      PAL 4:3 (720x576) VBR
Menu Subtitles:
      Not specified
Menu English Language Unit :
      Root Menu
Код: Выделить всё
Общее
Полное имя                               : L:\Monar.ru\Видео\Документальные фильмы\История России и мира\Война и мир Александра I\Фильм 3. Ура! Мы в Париже!\VIDEO_TS\VIDEO_TS.BUP
Формат                                   : DVD Video
Профиль формата                          : Menu
Размер файла                             : 14,0 Кбайт
Режим общего битрейта                    : Переменный

Видео
Идентификатор                            : 224 (0xE0)
Формат                                   : MPEG Video
Версия формата                           : Version 2
Вид битрейта                             : Переменный
Ширина                                   : 720 пикселей
Высота                                   : 576 пикселей
Соотношение сторон                       : 4:3
Частота кадров                           : 25,000 кадров/сек
Стандарт вещания                         : PAL
Метод сжатия                             : С потерями

Текст
Формат                                   : RLE
Формат/Информация                        : Run-length encoding
Битовая глубина                          : 2 бит

Общее
Полное имя                               : L:\Monar.ru\Видео\Документальные фильмы\История России и мира\Война и мир Александра I\Фильм 3. Ура! Мы в Париже!\VIDEO_TS\VIDEO_TS.IFO
Формат                                   : DVD Video
Профиль формата                          : Menu
Размер файла                             : 14,0 Кбайт
Режим общего битрейта                    : Переменный

Видео
Идентификатор                            : 224 (0xE0)
Формат                                   : MPEG Video
Версия формата                           : Version 2
Вид битрейта                             : Переменный
Ширина                                   : 720 пикселей
Высота                                   : 576 пикселей
Соотношение сторон                       : 4:3
Частота кадров                           : 25,000 кадров/сек
Стандарт вещания                         : PAL
Метод сжатия                             : С потерями

Текст
Формат                                   : RLE
Формат/Информация                        : Run-length encoding
Битовая глубина                          : 2 бит

Общее
Полное имя                               : L:\Monar.ru\Видео\Документальные фильмы\История России и мира\Война и мир Александра I\Фильм 3. Ура! Мы в Париже!\VIDEO_TS\VIDEO_TS.VOB
Формат                                   : MPEG-PS
Размер файла                             : 14,0 Кбайт
Продолжительность                        : 40 мс.
Режим общего битрейта                    : Переменный
Общий поток                              : 2867 Кбит/сек

Видео
Идентификатор                            : 224 (0xE0)
Формат                                   : MPEG Video
Версия формата                           : Version 2
Профиль формата                          : [email protected]
Параметр BVOP формата                    : Нет
Параметр матрицы формата                 : По умолчанию
Продолжительность                        : 40 мс.
Вид битрейта                             : Переменный
Максимальный битрейт                     : 8300 Кбит/сек
Ширина                                   : 720 пикселей
Высота                                   : 576 пикселей
Соотношение сторон                       : 4:3
Частота кадров                           : 25,000 кадров/сек
Стандарт вещания                         : PAL
Цветовое пространство                    : YUV
Субдискретизация насыщенности            : 4:2:0
Битовая глубина                          : 8 бит
Тип развёртки                            : Прогрессивная
Метод сжатия                             : С потерями
Временной код первого кадра              : 00:00:00:00
Оригинал временного кода                 : Group of pictures header

Текст
Идентификатор                            : 189 (0xBD)-32 (0x20)
Формат                                   : RLE
Формат/Информация                        : Run-length encoding
Режим смешивания                         : DVD-Video

Меню

Общее
Полное имя                               : L:\Monar.ru\Видео\Документальные фильмы\История России и мира\Война и мир Александра I\Фильм 3. Ура! Мы в Париже!\VIDEO_TS\VTS_01_0.BUP
Формат                                   : DVD Video
Профиль формата                          : Program
Размер файла                             : 46,0 Кбайт
Продолжительность                        : 54 м.
Режим общего битрейта                    : Переменный
Общий поток                              : 116 бит/сек

Видео
Идентификатор                            : 224 (0xE0)
Формат                                   : MPEG Video
Версия формата                           : Version 2
Продолжительность                        : 54 м.
Вид битрейта                             : Переменный
Ширина                                   : 720 пикселей
Высота                                   : 576 пикселей
Соотношение сторон                       : 16:9
Частота кадров                           : 25,000 кадров/сек
Стандарт вещания                         : PAL
Метод сжатия                             : С потерями

Аудио
Идентификатор                            : 128 (0x80)
Формат                                   : AC-3
Формат/Информация                        : Audio Coding 3
Продолжительность                        : 54 м.
Каналы                                   : 2 канала
Частота                                  : 48,0 КГц
Метод сжатия                             : С потерями

Меню
Продолжительность                        : 54 м.
00:00:00.000                             : Chapter 1
00:05:00.400                             : Chapter 2
00:10:00.400                             : Chapter 3
00:15:00.400                             : Chapter 4
00:20:00.400                             : Chapter 5
00:25:00.400                             : Chapter 6
00:30:00.400                             : Chapter 7
00:35:00.400                             : Chapter 8
00:40:00.400                             : Chapter 9
00:45:00.400                             : Chapter 10
00:50:00.400                             : Chapter 11
List (Audio)                             : 0

Общее
Полное имя                               : L:\Monar.ru\Видео\Документальные фильмы\История России и мира\Война и мир Александра I\Фильм 3. Ура! Мы в Париже!\VIDEO_TS\VTS_01_0.IFO
Формат                                   : DVD Video
Профиль формата                          : Program
Размер файла                             : 46,0 Кбайт
Продолжительность                        : 54 м.
Режим общего битрейта                    : Переменный
Общий поток                              : 116 бит/сек

Видео
Идентификатор                            : 224 (0xE0)
Формат                                   : MPEG Video
Версия формата                           : Version 2
Продолжительность                        : 54 м.
Вид битрейта                             : Переменный
Ширина                                   : 720 пикселей
Высота                                   : 576 пикселей
Соотношение сторон                       : 16:9
Частота кадров                           : 25,000 кадров/сек
Стандарт вещания                         : PAL
Метод сжатия                             : С потерями

Аудио
Идентификатор                            : 128 (0x80)
Формат                                   : AC-3
Формат/Информация                        : Audio Coding 3
Продолжительность                        : 54 м.
Каналы                                   : 2 канала
Частота                                  : 48,0 КГц
Метод сжатия                             : С потерями

Меню
Продолжительность                        : 54 м.
00:00:00.000                             : Chapter 1
00:05:00.400                             : Chapter 2
00:10:00.400                             : Chapter 3
00:15:00.400                             : Chapter 4
00:20:00.400                             : Chapter 5
00:25:00.400                             : Chapter 6
00:30:00.400                             : Chapter 7
00:35:00.400                             : Chapter 8
00:40:00.400                             : Chapter 9
00:45:00.400                             : Chapter 10
00:50:00.400                             : Chapter 11
List (Audio)                             : 0

Общее
Полное имя                               : L:\Monar.ru\Видео\Документальные фильмы\История России и мира\Война и мир Александра I\Фильм 3. Ура! Мы в Париже!\VIDEO_TS\VTS_01_1.VOB
Формат                                   : MPEG-PS
Размер файла                             : 1008 Мбайт
Продолжительность                        : 19 м.
Режим общего битрейта                    : Переменный
Общий поток                              : 7341 Кбит/сек

Видео
Идентификатор                            : 224 (0xE0)
Формат                                   : MPEG Video
Версия формата                           : Version 2
Профиль формата                          : [email protected]
Параметр BVOP формата                    : Да
Параметр матрицы формата                 : По умолчанию
Параметр GOP формата                     : M=3, N=12
Format_Settings_PictureStructure         : Frame
Продолжительность                        : 19 м.
Вид битрейта                             : Переменный
Битрейт                                  : 7003 Кбит/сек
Максимальный битрейт                     : 8000 Кбит/сек
Ширина                                   : 720 пикселей
Высота                                   : 576 пикселей
Соотношение сторон                       : 16:9
Частота кадров                           : 25,000 кадров/сек
Стандарт вещания                         : PAL
Цветовое пространство                    : YUV
Субдискретизация насыщенности            : 4:2:0
Битовая глубина                          : 8 бит
Тип развёртки                            : Чересстрочная
Порядок развёртки                        : Верхнее поле первое
Метод сжатия                             : С потерями
Бит/(Пиксели*Кадры)                      : 0.675
Временной код первого кадра              : 00:00:00:00
Оригинал временного кода                 : Group of pictures header
Размер потока                            : 962 Мбайт (95%)

Аудио
Идентификатор                            : 189 (0xBD)-128 (0x80)
Формат                                   : AC-3
Формат/Информация                        : Audio Coding 3
Расширение режима                        : CM (complete main)
Параметр Endianness формата              : Big
Режим смешивания                         : DVD-Video
Продолжительность                        : 19 м.
Вид битрейта                             : Постоянный
Битрейт                                  : 192 Кбит/сек
Каналы                                   : 2 канала
Расположение каналов                     : Front: L R
Частота                                  : 48,0 КГц
Частота кадров                           : 31,250 кадров/сек (1536 spf)
Метод сжатия                             : С потерями
Размер потока                            : 26,4 Мбайт (3%)

Меню

Общее
Полное имя                               : L:\Monar.ru\Видео\Документальные фильмы\История России и мира\Война и мир Александра I\Фильм 3. Ура! Мы в Париже!\VIDEO_TS\VTS_01_2.VOB
Формат                                   : MPEG-PS
Размер файла                             : 1008 Мбайт
Продолжительность                        : 18 м.
Режим общего битрейта                    : Переменный
Общий поток                              : 7538 Кбит/сек

Видео
Идентификатор                            : 224 (0xE0)
Формат                                   : MPEG Video
Версия формата                           : Version 2
Профиль формата                          : [email protected]
Параметр BVOP формата                    : Да
Параметр матрицы формата                 : По умолчанию
Параметр GOP формата                     : M=3, N=12
Format_Settings_PictureStructure         : Frame
Продолжительность                        : 18 м.
Вид битрейта                             : Переменный
Битрейт                                  : 7196 Кбит/сек
Максимальный битрейт                     : 8000 Кбит/сек
Ширина                                   : 720 пикселей
Высота                                   : 576 пикселей
Соотношение сторон                       : 16:9
Частота кадров                           : 25,000 кадров/сек
Стандарт вещания                         : PAL
Цветовое пространство                    : YUV
Субдискретизация насыщенности            : 4:2:0
Битовая глубина                          : 8 бит
Тип развёртки                            : Чересстрочная
Порядок развёртки                        : Верхнее поле первое
Метод сжатия                             : С потерями
Бит/(Пиксели*Кадры)                      : 0.694
Временной код первого кадра              : 00:19:11:23
Оригинал временного кода                 : Group of pictures header
Размер потока                            : 962 Мбайт (95%)

Аудио
Идентификатор                            : 189 (0xBD)-128 (0x80)
Формат                                   : AC-3
Формат/Информация                        : Audio Coding 3
Расширение режима                        : CM (complete main)
Параметр Endianness формата              : Big
Режим смешивания                         : DVD-Video
Продолжительность                        : 18 м.
Вид битрейта                             : Постоянный
Битрейт                                  : 192 Кбит/сек
Каналы                                   : 2 канала
Расположение каналов                     : Front: L R
Частота                                  : 48,0 КГц
Частота кадров                           : 31,250 кадров/сек (1536 spf)
Метод сжатия                             : С потерями
Задержка видео                           : 48 мс.
Размер потока                            : 25,7 Мбайт (3%)

Меню

Общее
Полное имя                               : L:\Monar.ru\Видео\Документальные фильмы\История России и мира\Война и мир Александра I\Фильм 3. Ура! Мы в Париже!\VIDEO_TS\VTS_01_3.VOB
Формат                                   : MPEG-PS
Размер файла                             : 776 Мбайт
Продолжительность                        : 16 м.
Режим общего битрейта                    : Переменный
Общий поток                              : 6607 Кбит/сек

Видео
Идентификатор                            : 224 (0xE0)
Формат                                   : MPEG Video
Версия формата                           : Version 2
Профиль формата                          : [email protected]
Параметр BVOP формата                    : Да
Параметр матрицы формата                 : По умолчанию
Параметр GOP формата                     : M=3, N=12
Format_Settings_PictureStructure         : Frame
Продолжительность                        : 16 м.
Вид битрейта                             : Переменный
Максимальный битрейт                     : 8000 Кбит/сек
Ширина                                   : 720 пикселей
Высота                                   : 576 пикселей
Соотношение сторон                       : 16:9
Частота кадров                           : 25,000 кадров/сек
Стандарт вещания                         : PAL
Цветовое пространство                    : YUV
Субдискретизация насыщенности            : 4:2:0
Битовая глубина                          : 8 бит
Тип развёртки                            : Чересстрочная
Порядок развёртки                        : Верхнее поле первое
Метод сжатия                             : С потерями
Временной код первого кадра              : 00:37:53:17
Оригинал временного кода                 : Group of pictures header

Аудио #1
Идентификатор                            : 189 (0xBD)-128 (0x80)
Формат                                   : AC-3
Формат/Информация                        : Audio Coding 3
Расширение режима                        : CM (complete main)
Параметр Endianness формата              : Big
Режим смешивания                         : DVD-Video
Продолжительность                        : 16 м.
Вид битрейта                             : Постоянный
Битрейт                                  : 192 Кбит/сек
Каналы                                   : 2 канала
Расположение каналов                     : Front: L R
Частота                                  : 48,0 КГц
Частота кадров                           : 31,250 кадров/сек (1536 spf)
Метод сжатия                             : С потерями
Задержка видео                           : 48 мс.
Размер потока                            : 22,5 Мбайт (3%)

Аудио #2
Идентификатор                            : 221 (0xDD)
Формат                                   : MPEG Audio
Метод сжатия                             : С потерями

Меню
#77Описание:
Александру I, положившему много сил на освобождение России и Европы от наполеоновского владычества, пришлось еще при жизни пережить глубокое разочарование:
- неблагодарность вчерашних союзников по коалиции;
- их интриги на Венском конгрессе;
- смерть единственной оставшейся в живых дочери;
- тайные общества среди офицеров его Армии.
Это произвело духовный переворот в его душе.
Императора начинает тяготить светская жизнь, и даже сам Трон.
Его неожиданная кончина в Таганроге дала почву для версии о том, что он вовсе не умер, а таинственным образом скрылся и ушел в Сибирь под именем старца Фёдора Кузьмича.

Бонусы: Отсутствуют.

Меню: Отсутствует.

Разбиение по главам: есть

Качество: DVD5
Формат: DVD video
Видео кодек: MPEG2
Аудио кодек: AC3
Видео: 7004 Кбит/сек, PAL 720*576 (4:3), 25,000 кадров/сек
Аудио: Русский, 192 Кбит/сек, 48,0 КГц, 2 канала, AC-3
Код: Выделить всё
Title: Фильм 4. Император - человек на троне
Size: 2.62 Gb ( 2 743 778 KBytes ) - DVD-5
Enabled regions: 1, 2, 3, 4, 5, 6, 7, 8

VTS_01 :
  Play Length: 00:50:34
  Video: PAL 4:3 (720x576) VBR
  Audio:
      Russian (Dolby AC3, 2 ch)

Menu Video:
      PAL 4:3 (720x576) VBR
      Auto Pan&Scan, Auto Letterboxed
Menu  Language Unit :
      Root Menu
Код: Выделить всё
Общее
Полное имя                               : L:\Monar.ru\Видео\Документальные фильмы\История России и мира\Война и мир Александра I\Фильм 4. Император - человек на троне\VIDEO_TS\VIDEO_TS.BUP
Формат                                   : DVD Video
Профиль формата                          : Menu
Размер файла                             : 8,00 Кбайт
Режим общего битрейта                    : Переменный

Видео
Идентификатор                            : 224 (0xE0)
Формат                                   : MPEG Video
Версия формата                           : Version 1
Вид битрейта                             : Переменный
Ширина                                   : 720 пикселей
Высота                                   : 576 пикселей
Соотношение сторон                       : 4:3
Частота кадров                           : 25,000 кадров/сек
Стандарт вещания                         : PAL
Метод сжатия                             : С потерями

Общее
Полное имя                               : L:\Monar.ru\Видео\Документальные фильмы\История России и мира\Война и мир Александра I\Фильм 4. Император - человек на троне\VIDEO_TS\VIDEO_TS.IFO
Формат                                   : DVD Video
Профиль формата                          : Menu
Размер файла                             : 8,00 Кбайт
Режим общего битрейта                    : Переменный

Видео
Идентификатор                            : 224 (0xE0)
Формат                                   : MPEG Video
Версия формата                           : Version 1
Вид битрейта                             : Переменный
Ширина                                   : 720 пикселей
Высота                                   : 576 пикселей
Соотношение сторон                       : 4:3
Частота кадров                           : 25,000 кадров/сек
Стандарт вещания                         : PAL
Метод сжатия                             : С потерями

Общее
Полное имя                               : L:\Monar.ru\Видео\Документальные фильмы\История России и мира\Война и мир Александра I\Фильм 4. Император - человек на троне\VIDEO_TS\VTS_01_0.BUP
Формат                                   : DVD Video
Профиль формата                          : Program
Размер файла                             : 42,0 Кбайт
Продолжительность                        : 50 м.
Режим общего битрейта                    : Переменный
Общий поток                              : 113 бит/сек

Видео
Идентификатор                            : 224 (0xE0)
Формат                                   : MPEG Video
Версия формата                           : Version 2
Продолжительность                        : 50 м.
Вид битрейта                             : Переменный
Ширина                                   : 720 пикселей
Высота                                   : 576 пикселей
Соотношение сторон                       : 4:3
Частота кадров                           : 25,000 кадров/сек
Стандарт вещания                         : PAL
Метод сжатия                             : С потерями

Аудио
Идентификатор                            : 128 (0x80)
Формат                                   : AC-3
Формат/Информация                        : Audio Coding 3
Продолжительность                        : 50 м.
Каналы                                   : 2 канала
Частота                                  : 48,0 КГц
Метод сжатия                             : С потерями
Язык                                     : Russian

Меню
Продолжительность                        : 50 м.
00:00:00.000                             : Chapter 1
00:05:00.600                             : Chapter 2
00:10:00.720                             : Chapter 3
00:15:00.720                             : Chapter 4
00:20:00.720                             : Chapter 5
00:25:00.720                             : Chapter 6
00:30:00.720                             : Chapter 7
00:35:00.720                             : Chapter 8
00:40:00.640                             : Chapter 9
00:45:00.600                             : Chapter 10
00:50:00.720                             : Chapter 11
List (Audio)                             : 0

Общее
Полное имя                               : L:\Monar.ru\Видео\Документальные фильмы\История России и мира\Война и мир Александра I\Фильм 4. Император - человек на троне\VIDEO_TS\VTS_01_0.IFO
Формат                                   : DVD Video
Профиль формата                          : Program
Размер файла                             : 42,0 Кбайт
Продолжительность                        : 50 м.
Режим общего битрейта                    : Переменный
Общий поток                              : 113 бит/сек

Видео
Идентификатор                            : 224 (0xE0)
Формат                                   : MPEG Video
Версия формата                           : Version 2
Продолжительность                        : 50 м.
Вид битрейта                             : Переменный
Ширина                                   : 720 пикселей
Высота                                   : 576 пикселей
Соотношение сторон                       : 4:3
Частота кадров                           : 25,000 кадров/сек
Стандарт вещания                         : PAL
Метод сжатия                             : С потерями

Аудио
Идентификатор                            : 128 (0x80)
Формат                                   : AC-3
Формат/Информация                        : Audio Coding 3
Продолжительность                        : 50 м.
Каналы                                   : 2 канала
Частота                                  : 48,0 КГц
Метод сжатия                             : С потерями
Язык                                     : Russian

Меню
Продолжительность                        : 50 м.
00:00:00.000                             : Chapter 1
00:05:00.600                             : Chapter 2
00:10:00.720                             : Chapter 3
00:15:00.720                             : Chapter 4
00:20:00.720                             : Chapter 5
00:25:00.720                             : Chapter 6
00:30:00.720                             : Chapter 7
00:35:00.720                             : Chapter 8
00:40:00.640                             : Chapter 9
00:45:00.600                             : Chapter 10
00:50:00.720                             : Chapter 11
List (Audio)                             : 0

Общее
Полное имя                               : L:\Monar.ru\Видео\Документальные фильмы\История России и мира\Война и мир Александра I\Фильм 4. Император - человек на троне\VIDEO_TS\VTS_01_1.VOB
Формат                                   : MPEG-PS
Размер файла                             : 1024 Мбайт
Продолжительность                        : 19 м.
Режим общего битрейта                    : Переменный
Общий поток                              : 7342 Кбит/сек

Видео
Идентификатор                            : 224 (0xE0)
Формат                                   : MPEG Video
Версия формата                           : Version 2
Профиль формата                          : [email protected]
Параметр BVOP формата                    : Да
Параметр матрицы формата                 : По умолчанию
Параметр GOP формата                     : M=3, N=12
Format_Settings_PictureStructure         : Frame
Продолжительность                        : 19 м.
Вид битрейта                             : Переменный
Битрейт                                  : 7004 Кбит/сек
Максимальный битрейт                     : 8000 Кбит/сек
Ширина                                   : 720 пикселей
Высота                                   : 576 пикселей
Соотношение сторон                       : 4:3
Частота кадров                           : 25,000 кадров/сек
Стандарт вещания                         : PAL
Цветовое пространство                    : YUV
Субдискретизация насыщенности            : 4:2:0
Битовая глубина                          : 8 бит
Тип развёртки                            : Чересстрочная
Порядок развёртки                        : Верхнее поле первое
Метод сжатия                             : С потерями
Бит/(Пиксели*Кадры)                      : 0.676
Временной код первого кадра              : 00:00:00:00
Оригинал временного кода                 : Group of pictures header
Размер потока                            : 977 Мбайт (95%)

Аудио
Идентификатор                            : 189 (0xBD)-128 (0x80)
Формат                                   : AC-3
Формат/Информация                        : Audio Coding 3
Расширение режима                        : CM (complete main)
Параметр Endianness формата              : Big
Режим смешивания                         : DVD-Video
Продолжительность                        : 19 м.
Вид битрейта                             : Постоянный
Битрейт                                  : 192 Кбит/сек
Каналы                                   : 2 канала
Расположение каналов                     : Front: L R
Частота                                  : 48,0 КГц
Частота кадров                           : 31,250 кадров/сек (1536 spf)
Метод сжатия                             : С потерями
Размер потока                            : 26,8 Мбайт (3%)

Меню

Общее
Полное имя                               : L:\Monar.ru\Видео\Документальные фильмы\История России и мира\Война и мир Александра I\Фильм 4. Император - человек на троне\VIDEO_TS\VTS_01_2.VOB
Формат                                   : MPEG-PS
Размер файла                             : 1024 Мбайт
Продолжительность                        : 19 м.
Режим общего битрейта                    : Переменный
Общий поток                              : 7488 Кбит/сек

Видео
Идентификатор                            : 224 (0xE0)
Формат                                   : MPEG Video
Версия формата                           : Version 2
Профиль формата                          : [email protected]
Параметр BVOP формата                    : Да
Параметр матрицы формата                 : По умолчанию
Параметр GOP формата                     : M=3, N=12
Format_Settings_PictureStructure         : Frame
Продолжительность                        : 19 м.
Вид битрейта                             : Переменный
Битрейт                                  : 7147 Кбит/сек
Максимальный битрейт                     : 8000 Кбит/сек
Ширина                                   : 720 пикселей
Высота                                   : 576 пикселей
Соотношение сторон                       : 4:3
Частота кадров                           : 25,000 кадров/сек
Стандарт вещания                         : PAL
Цветовое пространство                    : YUV
Субдискретизация насыщенности            : 4:2:0
Битовая глубина                          : 8 бит
Тип развёртки                            : Чересстрочная
Порядок развёртки                        : Верхнее поле первое
Метод сжатия                             : С потерями
Бит/(Пиксели*Кадры)                      : 0.689
Размер потока                            : 977 Мбайт (95%)

Аудио
Идентификатор                            : 189 (0xBD)-128 (0x80)
Формат                                   : AC-3
Формат/Информация                        : Audio Coding 3
Расширение режима                        : CM (complete main)
Параметр Endianness формата              : Big
Режим смешивания                         : DVD-Video
Продолжительность                        : 19 м.
Вид битрейта                             : Постоянный
Битрейт                                  : 192 Кбит/сек
Каналы                                   : 2 канала
Расположение каналов                     : Front: L R
Частота                                  : 48,0 КГц
Частота кадров                           : 31,250 кадров/сек (1536 spf)
Метод сжатия                             : С потерями
Задержка видео                           : -272 мс.
Размер потока                            : 26,3 Мбайт (3%)

Меню

Общее
Полное имя                               : L:\Monar.ru\Видео\Документальные фильмы\История России и мира\Война и мир Александра I\Фильм 4. Император - человек на троне\VIDEO_TS\VTS_01_3.VOB
Формат                                   : MPEG-PS
Размер файла                             : 631 Мбайт
Продолжительность                        : 11 м.
Режим общего битрейта                    : Переменный
Общий поток                              : 7383 Кбит/сек

Видео
Идентификатор                            : 224 (0xE0)
Формат                                   : MPEG Video
Версия формата                           : Version 2
Профиль формата                          : [email protected]
Параметр BVOP формата                    : Да
Параметр матрицы формата                 : По умолчанию
Параметр GOP формата                     : M=3, N=12
Format_Settings_PictureStructure         : Frame
Продолжительность                        : 11 м.
Вид битрейта                             : Переменный
Битрейт                                  : 7044 Кбит/сек
Максимальный битрейт                     : 8000 Кбит/сек
Ширина                                   : 720 пикселей
Высота                                   : 576 пикселей
Соотношение сторон                       : 4:3
Частота кадров                           : 25,000 кадров/сек
Стандарт вещания                         : PAL
Цветовое пространство                    : YUV
Субдискретизация насыщенности            : 4:2:0
Битовая глубина                          : 8 бит
Тип развёртки                            : Чересстрочная
Порядок развёртки                        : Верхнее поле первое
Метод сжатия                             : С потерями
Бит/(Пиксели*Кадры)                      : 0.679
Временной код первого кадра              : 00:38:32:07
Оригинал временного кода                 : Group of pictures header
Размер потока                            : 602 Мбайт (95%)

Аудио
Идентификатор                            : 189 (0xBD)-128 (0x80)
Формат                                   : AC-3
Формат/Информация                        : Audio Coding 3
Расширение режима                        : CM (complete main)
Параметр Endianness формата              : Big
Режим смешивания                         : DVD-Video
Продолжительность                        : 11 м.
Вид битрейта                             : Постоянный
Битрейт                                  : 192 Кбит/сек
Каналы                                   : 2 канала
Расположение каналов                     : Front: L R
Частота                                  : 48,0 КГц
Частота кадров                           : 31,250 кадров/сек (1536 spf)
Метод сжатия                             : С потерями
Задержка видео                           : -224 мс.
Размер потока                            : 16,4 Мбайт (3%)

Меню
31.05.2016 Торрент-файл перезалит. Добавлены 3-й и 4-й фильмы.
 
Не забывайте говорить Спасибо. Не уходите с раздачи!   
Торрент: Зарегистрирован [31 май 2016, 22:48] Для скачивания .torrent
необходима регистрация
Или скачать с помощью
MediaGet
Статус:
Проверен
 
.torrent скачан: 1 раз
Хэш: 85055d7fc30288c1922bee576a47ac93234142be
Размер: 12.77 ГБ (13 713 029 120 байт)
Стать Автором раздачи
 
 
Раздал: 100 ГБ
Скачал: 0 байт
Ратио: Seed.
Сообщения: 183978
Зарегистрирован: 09 апр 2015, 20:00


  • Похожие торренты
    Ответы
    Просмотры
    Последнее сообщение

Вернуться в Документальные (DVD)

Кто сейчас на конференции

Сейчас эту тему просматривают: нет зарегистрированных пользователей и гости: 1

Ресурс не предоставляет электронные версии произведений, а занимается лишь коллекционированием и каталогизацией ссылок, присылаемых и публикуемых на форуме нашими читателями. Если вы являетесь правообладателем какого-либо представленного материала и не желаете чтобы ссылка на него находилась в нашем каталоге, свяжитесь с нами и мы незамедлительно удалим её. Файлы для обмена на трекере предоставлены пользователями сайта, и администрация не несёт ответственности за их содержание. Просьба не заливать файлы, защищенные авторскими правами, а также файлы нелегального содержания!