Люди Икс: Апокалипсис / X-Men: Apocalypse (2016) CamRip [EN]

 
 Статистика раздачи 
Размер: 981.7 МБ   |  Зарегистрирован: 22 май 2016, 13:43   |   .torrent скачан: 8 раз
Сидеров: 1  [ 0 байт/сек ]     Личеров: 0  [ 0 байт/сек ]  
  

Люди Икс: Апокалипсис / X-Men: Apocalypse (2016) CamRip [EN]

Сообщение i926 » 22 май 2016, 13:43

Люди Икс: Апокалипсис / X-Men: Apocalypse (2016) CamRip

Производство: США
Жанр: Фантастика, Фэнтези, Боевик, Приключения

Режиссер: Брайан Сингер
Актеры: Джеймс МакЭвой, Майкл Фассбендер, Дженнифер Лоуренс, Николас Холт, Оскар Айзек, Роуз Бирн, Эван Питерс, Джош Хелман, Софи Тернер, Тай Шеридан

Описание:
События «Дней Минувшего Будущего» оказали колоссальное влияние на мир, где мутанты и люди борются за свое место под Солнцем. В это нелегкое время Людям Икс предстоит столкнуться со своим самым опасным противником — древним мутантом Апокалипсисом, существом, схватка с которым может стать последней не только для мутантов, но и в принципе для всего человечества. В поисках способа победы над неуязвимым и бессмертным монстром Людям Икс предстоит узнать больше о происхождении своего вида. Но Апокалипсис неимоверно силен, и вероятность победы все уменьшается, ведь он твердо убежден, что только сильнейшие имеют право на выживание…


Возраст: 12+ (зрителям, достигшим 12 лет)
Рейтинг MPAA: PG-13 (детям до 13 лет просмотр нежелателен)
Дата мировой премьеры: 9 мая 2016
Дата российской премьеры: 19 мая 2016

Продолжительность: 02:10:09
Качество видео: CamRip
Перевод: Отсутствует

Видео: MPEG-4, 624x272, ~922 Kbps
Аудио: MP3, 2 ch, 128 Kbps, CBR
Код:
Код: Выделить всё
General
Complete name               : X-Men Apocalypse 2016 ENG CAMRip.mp4
Format                      : MPEG-4
Format profile              : Base Media
Codec ID                    : isom (isom/iso2/mp41)
File size                   : 982 MiB
Duration                    : 2h 10mn
Overall bit rate            : 1 055 Kbps
Encoded date                : UTC 1970-01-01 00:00:00
Tagged date                 : UTC 1970-01-01 00:00:00
Writing application         : Lavf52.84.0

Video
ID                          : 1
Format                      : MPEG-4 Visual
Format profile              : Simple@L3
Format settings, BVOP       : No
Format settings, QPel       : No
Format settings, GMC        : No warppoints
Format settings, Matrix     : Default (H.263)
Codec ID                    : 20
Duration                    : 2h 10mn
Bit rate                    : 922 Kbps
Width                       : 624 pixels
Height                      : 272 pixels
Display aspect ratio        : 2.25:1
Frame rate mode             : Variable
Frame rate                  : 29.970 (29970/1000) fps
Minimum frame rate          : 29.940 fps
Maximum frame rate          : 29.970 fps
Color space                 : YUV
Chroma subsampling          : 4:2:0
Bit depth                   : 8 bits
Scan type                   : Progressive
Compression mode            : Lossy
Bits/(Pixel*Frame)          : 0.181
Stream size                 : 858 MiB (87%)
Writing library             : ZJMedia MPEG Encoder
Encoded date                : UTC 1970-01-01 00:00:00
Tagged date                 : UTC 1970-01-01 00:00:00

Audio
ID                          : 2
Format                      : MPEG Audio
Format version              : Version 1
Format profile              : Layer 3
Mode                        : Joint stereo
Mode extension              : MS Stereo
Codec ID                    : 6B
Duration                    : 2h 10mn
Bit rate mode               : Constant
Bit rate                    : 128 Kbps
Channel(s)                  : 2 channels
Sampling rate               : 48.0 KHz
Compression mode            : Lossy
Stream size                 : 119 MiB (12%)
Writing library             : LAME3.98.4
Encoded date                : UTC 1970-01-01 00:00:00
Tagged date                 : UTC 1970-01-01 00:00:00

Скриншоты:



Время раздачи: 12:00-18:00 (до появления первых 3-5 скачавших)
 
Не забывайте говорить Спасибо. Не уходите с раздачи!   
Торрент: Зарегистрирован [22 май 2016, 13:43] Для скачивания .torrent
необходима регистрация
Или скачать с помощью
MediaGet
Статус:
Проверен
 
.torrent скачан: 8 раз
Хэш: 29124304e5c3f7434dcd1ad5e5c3255e30f0f360
Размер: 981.7 МБ (1 029 382 209 байт)
Стать Автором раздачи
 
Аватара пользователя
Главный редактор
Главный редактор
 
Раздал: 15.43 ТБ
Скачал: 13.78 ТБ
Ратио: 1.120
Сообщения: 65090
Зарегистрирован: 01 мар 2011, 23:07


  • Похожие торренты
    Ответы
    Просмотры
    Последнее сообщение

Вернуться в Видео для мобильных устройств

Ресурс не предоставляет электронные версии произведений, а занимается лишь коллекционированием и каталогизацией ссылок, присылаемых и публикуемых на форуме нашими читателями. Если вы являетесь правообладателем какого-либо представленного материала и не желаете чтобы ссылка на него находилась в нашем каталоге, свяжитесь с нами и мы незамедлительно удалим её. Файлы для обмена на трекере предоставлены пользователями сайта, и администрация не несёт ответственности за их содержание. Просьба не заливать файлы, защищенные авторскими правами, а также файлы нелегального содержания!
cron