Наркотики. Секреты манипуляции (2016) HDTV [H.264] [MP4|1920x1080]

 
 Статистика раздачи 
Размер: 1.57 ГБ   |  Зарегистрирован: 21 май 2016, 13:13   |   .torrent скачан: 0 раз
Сидеров: 1  [ 0 байт/сек ]     Личеров: 0  [ 0 байт/сек ]  
  

Наркотики. Секреты манипуляции (2016) HDTV [H.264] [MP4|1920x1080]

Сообщение explosiveone » 21 май 2016, 13:13

Наркотики. Секреты манипуляции (2016) HDTV

Производство: Россия
Жанр: документальный, просветительский, познавательный

Режиссер: Алексей Дягтерёв, Ярослав Ковалевский
Актеры: Евгений Супрун, Ольга Сергеева, Иван Панченко, Виталий Иванов, Максим Попов, Игорь Миронов, Михаил Белоусов, Вероника Хохлова
Участники: Варламов Л. Г., Вяльба Ю. А., Аполихин О. И., Коротина О. В., Аслан Ныров, Татьяна Стефанова, Наталья Байрамова, Дарья Дурнева, Ольга Белова, Денис Минин.

Описание:
Документальный фильм Общероссийской общественной организации “Общее дело” посвящён проблеме наркотизации нашей молодёжи. Ни для кого не секрет, что Россию превратили в мировой рынок сбыта героина, опиума, новых синтетических наркотиков. В фильме раскрываются уловки наркодельцов, показывается, почему и как молодые люди начинают употреблять наркотики, алгоритмы вовлечения подростков в наркоманию. Фильм поможет предотвратить множество роковых ошибок, особенно в подростковом возрасте.

Фильм был снят за счёт финансовой поддержки неравнодушных граждан. Это вклад сотен людей из разных городов нашей страны. Мы выражаем им искреннюю благодарность! Создание фильма стало возможным только благодаря нашим совместным усилиям!

Возраст: 12+ (зрителям, достигшим 12 лет)

Продолжительность: 00:36:32
Качество видео: HDTV

Видео: AVC/H.264, 1920x1080, ~5829 Кбит/сек
Аудио: AAC, 2 ch, 317 Кбит/сек, VBR
Код:
Код: Выделить всё
Общее
Полное имя                               : D:\NNM-CLUB\[NNM-Club]_Наркотики. Секреты манипуляции.mp4
Формат                                   : MPEG-4
Профиль формата                          : Base Media / Version 2
Идентификатор кодека                     : mp42 (mp42/mp41)
Размер файла                             : 1,57 Гбайт
Продолжительность                        : 36 м.
Режим общего битрейта                    : Переменный
Общий поток                              : 6169 Кбит/сек
Дата кодирования                         : UTC 2016-04-30 07:53:39
Дата пометки                             : UTC 2016-04-30 07:54:55
©TIM                                     : 00:00:00:00
©TSC                                     : 25
©TSZ                                     : 1

Видео
Идентификатор                            : 1
Формат                                   : AVC
Формат/Информация                        : Advanced Video Codec
Профиль формата                          :
Параметр CABAC формата                   : Да
Параметр ReFrames формата                : 3 кадра
Идентификатор кодека                     : avc1
Идентификатор кодека/Информация          : Advanced Video Coding
Продолжительность                        : 36 м.
Битрейт                                  : 5829 Кбит/сек
Ширина                                   : 1920 пикселей
Высота                                   : 1080 пикселей
Соотношение сторон                       : 16:9
Режим частоты кадров                     : Постоянный
Частота кадров                           : 25,000 кадров/сек
Стандарт вещания                         : PAL
Цветовое пространство                    : YUV
Субдискретизация насыщенности            : 4:2:0
Битовая глубина                          : 8 бит
Тип развёртки                            : Прогрессивная
Бит/(Пиксели*Кадры)                      : 0.112
Размер потока                            : 1,49 Гбайт (94%)
Язык                                     : English
Дата кодирования                         : UTC 2016-04-30 07:53:39
Дата пометки                             : UTC 2016-04-30 07:53:39
colour_range                             : Limited
Основные цвета                           : BT.709
Характеристики трансфера                 : BT.709
Коэффициенты матрицы                     : BT.709

Аудио
Идентификатор                            : 2
Формат                                   : AAC
Формат/Информация                        : Advanced Audio Codec
Профиль формата                          : LC
Идентификатор кодека                     : 40
Продолжительность                        : 36 м.
Продолжительность оригинала              : 36 м.
Вид битрейта                             : Переменный
Битрейт                                  : 317 Кбит/сек
Максимальный битрейт                     : 422 Кбит/сек
Каналы                                   : 2 канала
Расположение каналов                     : Front: L R
Частота                                  : 48,0 КГц
Частота кадров                           : 46,875 кадров/сек (1024 spf)
Метод сжатия                             : С потерями
Размер потока                            : 83,0 Мбайт (5%)
Размер потока оригинала                  : 83,0 Мбайт (5%)
Язык                                     : English
Дата кодирования                         : UTC 2016-04-30 07:53:39
Дата пометки                             : UTC 2016-04-30 07:53:39

Скриншоты:


Время раздачи: Круглосуточно (по возможности) до 3 сидеров.
 
Не забывайте говорить Спасибо. Не уходите с раздачи!   
Торрент: Зарегистрирован [21 май 2016, 13:13] Для скачивания .torrent
необходима регистрация
Или скачать с помощью
MediaGet
Статус:
Проверен
 
.torrent скачан: 0 раз
Хэш: 37842809f7475328be15334a4b41d54e6cb2e45a
Размер: 1.57 ГБ (1 690 663 267 байт)
Стать Автором раздачи
 
 
Раздал: 100 ГБ
Скачал: 0 байт
Ратио: Seed.
Сообщения: 94032
Зарегистрирован: 09 апр 2015, 22:31


  • Похожие торренты
    Ответы
    Просмотры
    Последнее сообщение

Вернуться в Видео для мобильных устройств

Ресурс не предоставляет электронные версии произведений, а занимается лишь коллекционированием и каталогизацией ссылок, присылаемых и публикуемых на форуме нашими читателями. Если вы являетесь правообладателем какого-либо представленного материала и не желаете чтобы ссылка на него находилась в нашем каталоге, свяжитесь с нами и мы незамедлительно удалим её. Файлы для обмена на трекере предоставлены пользователями сайта, и администрация не несёт ответственности за их содержание. Просьба не заливать файлы, защищенные авторскими правами, а также файлы нелегального содержания!
cron