Джакомо Пуччини - Мадам Баттерфляй (Гамбургская государственная опера; , ; , , , ) / Giacomo Puccini - Madama Butterfly (Staatsoper Hamburg; , ; , , , ) [2012, Opera, Blu-ray 1080i]

 
 Статистика раздачи 
Размер: 20.43 ГБ   |  Зарегистрирован: 20 май 2016, 19:21   |   .torrent скачан: 0 раз
Сидеров: 1  [ 0 байт/сек ]     Личеров: 0  [ 0 байт/сек ]  
  

Джакомо Пуччини - Мадам Баттерфляй (Гамбургская государственная опера; , ; , , , ) / Giacomo Puccini - Madama Butterfly (Staatsoper Hamburg; , ; , , , ) [2012, Opera, Blu-ray 1080i]

Сообщение aLaVodka » 20 май 2016, 19:21

Джакомо Пуччини - Мадам Баттерфляй / Giacomo Puccini - Madama Butterfly

Год выпуска: 2012

Лейбл: Naxos, ArtHaus Musik
Страна-производитель: США
Жанр: Opera
Продолжительность: 02:16:49
Язык: Итальянский
Субтитры: Английские, французские, немецкие, испанские, итальянские, корейские

Режиссер: Vincent Boussard ()
Дирижер: Alexander Joel ()

Исполнители: Alexia Voulgaridou (Cio-Cio San), Cristina Damian (Suzuki), Ida Aldrian (Kate Pinkerton), Teodor Ilincai (B.F. Pinkerton), Lauri Vasar (Sharpless), Jürgen Sacher (Goro), Viktor Rud (Il Principe Yamadori), Jongmin Park (Lo Zio Bonzo), Thomas Florio (Il Commisario Imperiale), Hamburg Staatsoper Chorus, Hamburg Philharmonic Orchestra

Описание: Опера Пуччини "Мадам Баттерфляй" была написана в 1903 году, после того как композитор побывал в Лондоне и посетил Театр принца Йоркского. В то время на сцене шел спектакль "Гейша" американского писателя-драматурга Беласко. Предыстория появления этого спектакля уходит корнями в 1887 год, когда была написана повесть Дж. Лонга о несчастной любви японской жрицы развлечений, гейши по имени Чио-Чио-сан. Эта невеселая история и легла в основу постановки "Гейша", а затем и "Мадам Баттерфляй". Сюжет оперы в точности повторяет рассказ о трагической судьбе молодой японки.
Джакомо Пуччини был потрясен содержанием пьесы и, вернувшись в Милан, он приступил к написанию партитуры, предварительно заручившись поддержкой двух своих друзей, либреттистов театра "Ла Скала" Джузеппе Джакоза и Луиджи Иллика. Композитор горел желанием создать яркое произведение, которое могло бы стать шедевром в мире оперного искусства. Надо сказать, что его амбиции носили вполне закономерный характер, ведь на счету композитора уже были такие произведения, как "Тоска" и "Богема", написанные ранее.
Либретто Иллика и Джакоза написали в кратчайший срок, а сама будущая опера получила название "Мадам Баттерфляй", что означает "дама-бабочка". Однако сам Джакомо Пуччини в результате своего увлечения автомобильным спортом вскоре пострадал в аварии, которая надолго уложила его в постель. Работу над партитурой пришлось прервать. Спустя некоторое время композитор возобновил работу, однако она продвигалась медленно.
Оперу "Мадам Баттерфляй", сюжет которой был полон трагизма, Джакомо Пуччини написал в конце 1903 года. Премьера спектакля состоялась 17 февраля 1904 года в Миланском театре "Ла Скала". Вопреки ожиданиям, опера "Мадам Баттерфляй", сюжет которой, казалось бы, никого не мог оставить равнодушным, был принят публикой без энтузиазма. Причиной провала спектакля стало излишне растянутое действие, зрители заскучали, а к концу второго акта и вовсе стали расходиться.
Либретто нового спектакля было переписано почти полностью. Авторы расширили образ служанки Сузуки, она стала более характерной героиней. В период отсутствия Пинкертона Чио-Чио-сан сблизилась со служанкой, их отношения стали похожи на дружеские. Роль матери главной героини также стала более значительной.
В мае 1904-го в свет вышла новая постановка. На этот раз пьеса "Мадам Баттерфляй", сюжет которой был кардинально обновлен, публике понравилась. Критики тоже отозвались положительно. После нескольких спектаклей в "Ла Скала", опера Пуччини "Мадам Баттерфляй" начала триумфальное шествие по европейским театрам. Позже постановка с успехом пройдет и в Америке.
In 2012, the Hamburg State Opera presented a new production of Giacomo Puccini’s masterpiece Madama Butterfl y. The internationally renowned director Vincent Boussard stages the opera, collaborating with star fashion designer Christian Lacroix and set designer Vincent Lemaire. Together they succeed in bringing to life the moving tragedy of the young Japanese geisha Cio-Cio San in a stylish and sophisticated production that focuses on the title role, impressively portrayed by Greek soprano Alexia Voulgaridou. Subtly conducted by Alexander Joel, the dynamic cast includes Romanian Tenor Teodor Ilincai as Cio-Cio San’s love interest, B.F. Pinkerton and Estonian baritone Lauri Vasar as Consul Sharpless. Madama Butterfl y contains an enormous wealth of psychological poetry. Through his music, Giacomo Puccini lends his characters extremely rich and complex profi les and created an extraordinary explosive force.
Бонус: Анонсы дисков

Качество видео: Blu-ray
Формат/Контейнер: M2TS
Видео кодек: MPEG4
Аудио кодек: LPCM
Видео поток: MPEG-4 Video, 1920x1080, 16460 kbps, 29.970 fps
Аудио поток: LPCM, 2 ch, 48 kHz, 24-bit, 2304 kbps
Disc Title: Пуччини - Мадам Баттерфляй (Staatsoper Hamburg) (2012) (Blu-ray 1080i, AVC, LPCM 2.0)
Disc Size: 21 940 022 074 bytes
Protection: AACS
BD-Java: No
BDInfo: 0.5.8

Notes:

BDINFO HOME:
Cinema Squid
http://www.cinemasquid.com/blu-ray/tools/bdinfo

INCLUDES FORUMS REPORT FOR:
AVS Forum Blu-ray Audio and Video Specifications Thread
http://www.avsforum.com/avs-vb/showthread.php?t=1155731

********************
PLAYLIST: 00009.MPLS
********************

<--- BEGIN FORUMS PASTE --->Код:
Код: Выделить всё
Total   Video
Title                                                           Codec   Length  Movie Size      Disc Size       Bitrate Bitrate Main Audio Track                          Secondary Audio Track
-----                                                           ------  ------- --------------  --------------  ------- ------- ------------------                        ---------------------
00009.MPLS                                                      AVC     2:16:49 20 330 385 408  21 940 022 074  19,81   16,46   LPCM 2.0 2304Kbps (48kHz/24-bit)

Код:
Код: Выделить всё
DISC INFO:

Disc Title:     Пуччини - Мадам Баттерфляй (Staatsoper Hamburg) (2012) (Blu-ray 1080i, AVC, LPCM 2.0)
Disc Size:      21 940 022 074 bytes
Protection:     AACS
BD-Java:        No
BDInfo:         0.5.8

PLAYLIST REPORT:

Name:                   00009.MPLS
Length:                 2:16:49.968 (h:m:s.ms)
Size:                   20 330 385 408 bytes
Total Bitrate:          19,81 Mbps

VIDEO:

Codec                   Bitrate             Description
-----                   -------             -----------
MPEG-4 AVC Video        16460 kbps          1080i / 29,970 fps / 16:9 / High Profile 4.1

AUDIO:

Codec                           Language        Bitrate         Description
-----                           --------        -------         -----------
LPCM Audio                      Italian         2304 kbps       2.0 / 48 kHz / 2304 kbps / 24-bit

SUBTITLES:

Codec                           Language        Bitrate         Description
-----                           --------        -------         -----------
Presentation Graphics           German          17,552 kbps
Presentation Graphics           English         14,976 kbps
Presentation Graphics           French          15,607 kbps
Presentation Graphics           Spanish         15,269 kbps
Presentation Graphics           Italian         13,631 kbps
Presentation Graphics           Korean          15,773 kbps

FILES:

Name            Time In         Length          Size            Total Bitrate
----            -------         ------          ----            -------------
00001.M2TS      0:00:00.000     2:16:35.587     20 329 261 056  19 844
00005.M2TS      2:16:35.587     0:00:14.047     1 112 064       633
00000.M2TS      2:16:49.634     0:00:00.333     12 288          295

CHAPTERS:

Number          Time In         Length          Avg Video Rate  Max 1-Sec Rate  Max 1-Sec Time  Max 5-Sec Rate  Max 5-Sec Time  Max 10Sec Rate  Max 10Sec Time  Avg Frame Size  Max Frame Size  Max Frame Time
------          -------         ------          --------------  --------------  --------------  --------------  --------------  --------------  --------------  --------------  --------------  --------------
1               0:00:00.000     0:00:55.255     12 462 kbps     25 179 kbps     00:00:39.739    21 714 kbps     00:00:36.336    17 046 kbps     00:00:35.535    51 946 bytes    393 304 bytes   00:00:15.749
2               0:00:55.255     0:01:01.628     16 241 kbps     22 482 kbps     00:01:39.032    19 763 kbps     00:01:35.628    18 940 kbps     00:01:30.623    67 737 bytes    276 220 bytes   00:01:49.742
3               0:01:56.883     0:01:10.070     17 761 kbps     23 119 kbps     00:01:58.985    20 799 kbps     00:01:57.584    19 816 kbps     00:01:57.650    74 079 bytes    401 960 bytes   00:02:55.975
4               0:03:06.953     0:04:12.085     17 534 kbps     26 262 kbps     00:06:38.831    22 754 kbps     00:06:35.328    20 838 kbps     00:05:26.125    73 133 bytes    371 168 bytes   00:05:17.050
5               0:07:19.038     0:04:08.114     16 625 kbps     21 549 kbps     00:09:43.249    19 514 kbps     00:08:45.224    18 710 kbps     00:08:44.123    69 342 bytes    316 694 bytes   00:10:06.539
6               0:11:27.153     0:03:01.714     15 611 kbps     21 289 kbps     00:14:06.679    18 146 kbps     00:12:31.484    17 517 kbps     00:12:26.479    65 112 bytes    261 415 bytes   00:13:32.044
7               0:14:28.868     0:03:12.292     15 708 kbps     24 191 kbps     00:17:38.090    19 764 kbps     00:14:35.541    17 773 kbps     00:14:30.669    65 517 bytes    334 003 bytes   00:16:22.314
8               0:17:41.160     0:03:24.737     17 361 kbps     25 889 kbps     00:20:58.490    22 872 kbps     00:20:54.486    21 572 kbps     00:18:20.799    72 410 bytes    381 913 bytes   00:18:40.452
9               0:21:05.897     0:02:59.345     19 932 kbps     30 999 kbps     00:21:25.917    28 203 kbps     00:21:26.018    26 294 kbps     00:21:22.981    83 135 bytes    461 291 bytes   00:21:30.122
10              0:24:05.243     0:01:53.746     18 408 kbps     23 994 kbps     00:24:44.115    20 237 kbps     00:24:31.469    20 101 kbps     00:24:57.729    76 776 bytes    259 467 bytes   00:24:31.503
11              0:25:58.990     0:02:23.877     18 797 kbps     24 369 kbps     00:28:02.280    21 113 kbps     00:26:58.083    20 194 kbps     00:28:02.280    78 400 bytes    261 815 bytes   00:28:02.414
12              0:28:22.867     0:03:20.900     18 938 kbps     25 080 kbps     00:29:52.924    21 788 kbps     00:30:00.632    20 676 kbps     00:29:29.634    78 989 bytes    276 729 bytes   00:29:14.819
13              0:31:43.768     0:02:23.676     18 500 kbps     24 186 kbps     00:33:22.734    22 116 kbps     00:33:19.731    20 826 kbps     00:33:19.831    77 161 bytes    254 099 bytes   00:33:41.152
14              0:34:07.445     0:05:13.880     18 346 kbps     28 769 kbps     00:37:34.819    24 893 kbps     00:37:32.416    22 947 kbps     00:37:31.782    76 519 bytes    628 504 bytes   00:38:48.225
15              0:39:21.325     0:03:32.078     16 848 kbps     23 279 kbps     00:40:18.949    19 876 kbps     00:41:14.805    19 063 kbps     00:41:13.003    70 269 bytes    553 317 bytes   00:42:21.238
16              0:42:53.404     0:06:58.551     15 858 kbps     24 890 kbps     00:45:47.144    20 065 kbps     00:44:23.994    19 862 kbps     00:44:22.993    66 143 bytes    567 245 bytes   00:42:59.410
17              0:49:51.955     0:07:09.495     15 716 kbps     23 368 kbps     00:53:35.545    21 000 kbps     00:50:03.300    20 076 kbps     00:49:58.295    65 548 bytes    390 043 bytes   00:52:12.796
18              0:57:01.451     0:04:28.101     16 166 kbps     21 332 kbps     00:57:54.471    20 012 kbps     00:57:51.267    19 245 kbps     00:57:49.466    67 424 bytes    305 563 bytes   01:01:11.034
19              1:01:29.552     0:04:31.838     15 543 kbps     25 277 kbps     01:05:49.211    20 774 kbps     01:05:05.101    18 769 kbps     01:05:04.100    64 829 bytes    319 642 bytes   01:05:17.880
20              1:06:01.390     0:04:30.270     15 994 kbps     26 653 kbps     01:07:32.815    22 680 kbps     01:07:28.844    18 610 kbps     01:07:23.839    66 709 bytes    307 903 bytes   01:06:40.796
21              1:10:31.660     0:05:35.168     16 118 kbps     26 417 kbps     01:11:41.497    22 666 kbps     01:11:41.497    21 587 kbps     01:11:41.497    67 227 bytes    324 256 bytes   01:14:31.066
22              1:16:06.828     0:06:28.121     15 378 kbps     20 626 kbps     01:17:00.182    19 245 kbps     01:16:56.178    19 114 kbps     01:16:56.745    64 140 bytes    321 156 bytes   01:19:01.803
23              1:22:34.950     0:01:49.976     16 243 kbps     27 088 kbps     01:22:50.332    21 248 kbps     01:22:46.394    19 172 kbps     01:22:48.663    67 745 bytes    319 845 bytes   01:22:54.703
24              1:24:24.926     0:07:12.064     16 782 kbps     25 758 kbps     01:27:10.024    22 095 kbps     01:27:06.020    20 177 kbps     01:25:15.777    69 995 bytes    320 422 bytes   01:26:26.114
25              1:31:36.991     0:05:18.251     17 080 kbps     22 317 kbps     01:36:35.956    20 170 kbps     01:36:35.823    19 698 kbps     01:36:31.619    71 240 bytes    293 777 bytes   01:35:27.588
26              1:36:55.242     0:03:02.582     16 974 kbps     22 525 kbps     01:37:23.838    20 694 kbps     01:37:22.236    20 330 kbps     01:37:18.833    70 795 bytes    284 320 bytes   01:39:11.278
27              1:39:57.825     0:06:43.603     16 228 kbps     26 273 kbps     01:46:08.862    24 297 kbps     01:46:05.692    22 232 kbps     01:46:00.687    67 683 bytes    443 459 bytes   01:46:21.875
28              1:46:41.428     0:01:57.917     14 878 kbps     19 790 kbps     01:46:57.344    17 556 kbps     01:48:01.641    16 711 kbps     01:48:00.674    62 052 bytes    275 934 bytes   01:47:23.670
29              1:48:39.346     0:04:28.434     15 091 kbps     22 656 kbps     01:49:54.955    18 791 kbps     01:53:02.776    17 547 kbps     01:49:02.369    62 944 bytes    300 737 bytes   01:51:18.104
30              1:53:07.781     0:03:33.546     14 744 kbps     20 434 kbps     01:53:12.452    18 221 kbps     01:55:51.144    17 751 kbps     01:55:45.538    61 496 bytes    295 612 bytes   01:56:19.906
31              1:56:41.327     0:04:37.277     16 201 kbps     23 019 kbps     01:58:15.788    20 065 kbps     02:00:08.201    19 430 kbps     02:00:03.196    67 572 bytes    444 358 bytes   01:56:51.237
32              2:01:18.604     0:03:25.371     16 084 kbps     21 483 kbps     02:03:56.896    19 574 kbps     02:01:20.006    18 931 kbps     02:03:01.640    67 084 bytes    332 096 bytes   02:03:14.754
33              2:04:43.976     0:03:33.313     16 129 kbps     21 058 kbps     02:04:50.983    19 188 kbps     02:05:14.306    18 780 kbps     02:05:09.268    67 272 bytes    275 458 bytes   02:06:19.305
34              2:08:17.289     0:04:25.665     16 015 kbps     20 341 kbps     02:11:29.848    19 055 kbps     02:11:25.844    18 457 kbps     02:10:40.399    66 797 bytes    360 947 bytes   02:10:45.037
35              2:12:42.955     0:03:52.632     16 612 kbps     32 432 kbps     02:13:52.224    24 851 kbps     02:13:49.021    23 022 kbps     02:13:50.522    69 286 bytes    614 722 bytes   02:15:02.027
36              2:16:35.587     0:00:14.381     516 kbps        1 474 kbps      02:16:40.959    985 kbps        02:16:36.755    686 kbps        02:16:35.587    2 158 bytes     23 543 bytes    02:16:38.590

STREAM DIAGNOSTICS:

File            PID             Type            Codec           Language                Seconds                 Bitrate                 Bytes           Packets
----            ---             ----            -----           --------                --------------          --------------          -------------   -----
00001.M2TS      4113 (0x1011)   0x1B            AVC                                     8195,521                16 488                  16 891 234 052  91 943 693
00001.M2TS      4352 (0x1100)   0x80            LPCM            ita (Italian)           8195,521                2 309                   2 365 459 720   13 105 040
00001.M2TS      4608 (0x1200)   0x90            PGS             deu (German)            8195,521                18                      18 013 129      104 654
00001.M2TS      4609 (0x1201)   0x90            PGS             eng (English)           8195,521                15                      15 368 640      90 300
00001.M2TS      4610 (0x1202)   0x90            PGS             fra (French)            8195,521                16                      16 016 450      93 774
00001.M2TS      4611 (0x1203)   0x90            PGS             spa (Spanish)           8195,521                15                      15 669 872      91 963
00001.M2TS      4612 (0x1204)   0x90            PGS             ita (Italian)           8195,521                14                      13 989 019      82 823
00001.M2TS      4613 (0x1205)   0x90            PGS             kor (Korean)            8195,521                16                      16 186 575      94 778
00005.M2TS      4113 (0x1011)   0x1B            AVC                                     13,914                  532                     924 426         5 314
00000.M2TS      4113 (0x1011)   0x1B            AVC                                     0,200                   244                     6 107           41

<---- END FORUMS PASTE ---->

QUICK SUMMARY:

Disc Title: Пуччини - Мадам Баттерфляй (Staatsoper Hamburg) (2012) (Blu-ray 1080i, AVC, LPCM 2.0)
Disc Size: 21 940 022 074 bytes
Protection: AACS
BD-Java: No
Playlist: 00009.MPLS
Size: 20 330 385 408 bytes
Length: 2:16:49.968
Total Bitrate: 19,81 Mbps
Video: MPEG-4 AVC Video / 16460 kbps / 1080i / 29,970 fps / 16:9 / High Profile 4.1
Audio: Italian / LPCM Audio / 2.0 / 48 kHz / 2304 kbps / 24-bit
Subtitle: German / 17,552 kbps
Subtitle: English / 14,976 kbps
Subtitle: French / 15,607 kbps
Subtitle: Spanish / 15,269 kbps
Subtitle: Italian / 13,631 kbps
Subtitle: Korean / 15,773 kbps

********************
PLAYLIST: 00006.MPLS
********************

<--- BEGIN FORUMS PASTE --->Код:
Код: Выделить всё
Total   Video
Title                                                           Codec   Length  Movie Size      Disc Size       Bitrate Bitrate Main Audio Track                          Secondary Audio Track
-----                                                           ------  ------- --------------  --------------  ------- ------- ------------------                        ---------------------
00006.MPLS                                                      AVC     0:03:09 391 335 936     21 940 022 074  16,50   13,97   LPCM 2.0 1536Kbps (48kHz/16-bit)

Код:
Код: Выделить всё
DISC INFO:

Disc Title:     Пуччини - Мадам Баттерфляй (Staatsoper Hamburg) (2012) (Blu-ray 1080i, AVC, LPCM 2.0)
Disc Size:      21 940 022 074 bytes
Protection:     AACS
BD-Java:        No
BDInfo:         0.5.8

PLAYLIST REPORT:

Name:                   00006.MPLS
Length:                 0:03:09.756 (h:m:s.ms)
Size:                   391 335 936 bytes
Total Bitrate:          16,50 Mbps

VIDEO:

Codec                   Bitrate             Description
-----                   -------             -----------
MPEG-4 AVC Video        13972 kbps          1080i / 29,970 fps / 16:9 / High Profile 4.1

AUDIO:

Codec                           Language        Bitrate         Description
-----                           --------        -------         -----------
LPCM Audio                      Undetermined    1536 kbps       2.0 / 48 kHz / 1536 kbps / 16-bit

FILES:

Name            Time In         Length          Size            Total Bitrate
----            -------         ------          ----            -------------
00009.M2TS      0:00:00.000     0:03:09.422     391 323 648     16 527
00000.M2TS      0:03:09.422     0:00:00.333     12 288          295

CHAPTERS:

Number          Time In         Length          Avg Video Rate  Max 1-Sec Rate  Max 1-Sec Time  Max 5-Sec Rate  Max 5-Sec Time  Max 10Sec Rate  Max 10Sec Time  Avg Frame Size  Max Frame Size  Max Frame Time
------          -------         ------          --------------  --------------  --------------  --------------  --------------  --------------  --------------  --------------  --------------  --------------
1               0:00:00.000     0:03:09.756     13 972 kbps     22 349 kbps     00:01:56.349    20 793 kbps     00:01:48.341    20 497 kbps     00:01:48.141    58 275 bytes    358 802 bytes   00:00:20.520

STREAM DIAGNOSTICS:

File            PID             Type            Codec           Language                Seconds                 Bitrate                 Bytes           Packets
----            ---             ----            -----           --------                --------------          --------------          -------------   -----
00009.M2TS      4113 (0x1011)   0x1B            AVC                                     189,356                 14 001                  331 405 993     1 804 464
00009.M2TS      4352 (0x1100)   0x80            LPCM            und (Undetermined)      189,356                 1 543                   36 521 140      227 310
00000.M2TS      4113 (0x1011)   0x1B            AVC                                     0,200                   244                     6 107           41

<---- END FORUMS PASTE ---->

QUICK SUMMARY:

Disc Title: Пуччини - Мадам Баттерфляй (Staatsoper Hamburg) (2012) (Blu-ray 1080i, AVC, LPCM 2.0)
Disc Size: 21 940 022 074 bytes
Protection: AACS
BD-Java: No
Playlist: 00006.MPLS
Size: 391 335 936 bytes
Length: 0:03:09.756
Total Bitrate: 16,50 Mbps
Video: MPEG-4 AVC Video / 13972 kbps / 1080i / 29,970 fps / 16:9 / High Profile 4.1
Audio: Undetermined / LPCM Audio / 2.0 / 48 kHz / 1536 kbps / 16-bit

********************
PLAYLIST: 00004.MPLS
********************

<--- BEGIN FORUMS PASTE --->Код:
Код: Выделить всё
Total   Video
Title                                                           Codec   Length  Movie Size      Disc Size       Bitrate Bitrate Main Audio Track                          Secondary Audio Track
-----                                                           ------  ------- --------------  --------------  ------- ------- ------------------                        ---------------------
00004.MPLS                                                      AVC     0:02:55 363 982 848     21 940 022 074  16,59   14,06   LPCM 2.0 1536Kbps (48kHz/16-bit)

Код:
Код: Выделить всё
DISC INFO:

Disc Title:     Пуччини - Мадам Баттерфляй (Staatsoper Hamburg) (2012) (Blu-ray 1080i, AVC, LPCM 2.0)
Disc Size:      21 940 022 074 bytes
Protection:     AACS
BD-Java:        No
BDInfo:         0.5.8

PLAYLIST REPORT:

Name:                   00004.MPLS
Length:                 0:02:55.508 (h:m:s.ms)
Size:                   363 982 848 bytes
Total Bitrate:          16,59 Mbps

VIDEO:

Codec                   Bitrate             Description
-----                   -------             -----------
MPEG-4 AVC Video        14062 kbps          1080i / 29,970 fps / 16:9 / High Profile 4.1

AUDIO:

Codec                           Language        Bitrate         Description
-----                           --------        -------         -----------
LPCM Audio                      Undetermined    1536 kbps       2.0 / 48 kHz / 1536 kbps / 16-bit

FILES:

Name            Time In         Length          Size            Total Bitrate
----            -------         ------          ----            -------------
00003.M2TS      0:00:00.000     0:02:55.174     363 970 560     16 622
00000.M2TS      0:02:55.174     0:00:00.333     12 288          295

CHAPTERS:

Number          Time In         Length          Avg Video Rate  Max 1-Sec Rate  Max 1-Sec Time  Max 5-Sec Rate  Max 5-Sec Time  Max 10Sec Rate  Max 10Sec Time  Avg Frame Size  Max Frame Size  Max Frame Time
------          -------         ------          --------------  --------------  --------------  --------------  --------------  --------------  --------------  --------------  --------------  --------------
1               0:00:00.000     0:02:55.508     14 062 kbps     25 193 kbps     00:00:07.040    17 982 kbps     00:02:29.949    17 757 kbps     00:02:25.378    58 648 bytes    438 536 bytes   00:00:07.207

STREAM DIAGNOSTICS:

File            PID             Type            Codec           Language                Seconds                 Bitrate                 Bytes           Packets
----            ---             ----            -----           --------                --------------          --------------          -------------   -----
00003.M2TS      4113 (0x1011)   0x1B            AVC                                     175,108                 14 093                  308 483 339     1 679 590
00003.M2TS      4352 (0x1100)   0x80            LPCM            und (Undetermined)      175,108                 1 543                   33 773 740      210 210
00000.M2TS      4113 (0x1011)   0x1B            AVC                                     0,200                   244                     6 107           41

<---- END FORUMS PASTE ---->

QUICK SUMMARY:

Disc Title: Пуччини - Мадам Баттерфляй (Staatsoper Hamburg) (2012) (Blu-ray 1080i, AVC, LPCM 2.0)
Disc Size: 21 940 022 074 bytes
Protection: AACS
BD-Java: No
Playlist: 00004.MPLS
Size: 363 982 848 bytes
Length: 0:02:55.508
Total Bitrate: 16,59 Mbps
Video: MPEG-4 AVC Video / 14062 kbps / 1080i / 29,970 fps / 16:9 / High Profile 4.1
Audio: Undetermined / LPCM Audio / 2.0 / 48 kHz / 1536 kbps / 16-bit

********************
PLAYLIST: 00002.MPLS
********************

<--- BEGIN FORUMS PASTE --->Код:
Код: Выделить всё
Total   Video
Title                                                           Codec   Length  Movie Size      Disc Size       Bitrate Bitrate Main Audio Track                          Secondary Audio Track
-----                                                           ------  ------- --------------  --------------  ------- ------- ------------------                        ---------------------
00002.MPLS                                                      AVC     0:02:51 353 298 432     21 940 022 074  16,48   13,95   LPCM 2.0 1536Kbps (48kHz/16-bit)

Код:
Код: Выделить всё
DISC INFO:

Disc Title:     Пуччини - Мадам Баттерфляй (Staatsoper Hamburg) (2012) (Blu-ray 1080i, AVC, LPCM 2.0)
Disc Size:      21 940 022 074 bytes
Protection:     AACS
BD-Java:        No
BDInfo:         0.5.8

PLAYLIST REPORT:

Name:                   00002.MPLS
Length:                 0:02:51.504 (h:m:s.ms)
Size:                   353 298 432 bytes
Total Bitrate:          16,48 Mbps

VIDEO:

Codec                   Bitrate             Description
-----                   -------             -----------
MPEG-4 AVC Video        13955 kbps          1080i / 29,970 fps / 16:9 / High Profile 4.1

AUDIO:

Codec                           Language        Bitrate         Description
-----                           --------        -------         -----------
LPCM Audio                      Undetermined    1536 kbps       2.0 / 48 kHz / 1536 kbps / 16-bit

FILES:

Name            Time In         Length          Size            Total Bitrate
----            -------         ------          ----            -------------
00002.M2TS      0:00:00.000     0:02:51.171     353 286 144     16 511
00000.M2TS      0:02:51.171     0:00:00.333     12 288          295

CHAPTERS:

Number          Time In         Length          Avg Video Rate  Max 1-Sec Rate  Max 1-Sec Time  Max 5-Sec Rate  Max 5-Sec Time  Max 10Sec Rate  Max 10Sec Time  Avg Frame Size  Max Frame Size  Max Frame Time
------          -------         ------          --------------  --------------  --------------  --------------  --------------  --------------  --------------  --------------  --------------  --------------
1               0:00:00.000     0:02:51.504     13 955 kbps     20 873 kbps     00:00:39.806    18 874 kbps     00:01:06.166    17 470 kbps     00:01:05.165    58 202 bytes    290 876 bytes   00:02:38.491

STREAM DIAGNOSTICS:

File            PID             Type            Codec           Language                Seconds                 Bitrate                 Bytes           Packets
----            ---             ----            -----           --------                --------------          --------------          -------------   -----
00002.M2TS      4113 (0x1011)   0x1B            AVC                                     171,104                 13 987                  299 152 235     1 628 880
00002.M2TS      4352 (0x1100)   0x80            LPCM            und (Undetermined)      171,104                 1 543                   33 002 540      205 410
00000.M2TS      4113 (0x1011)   0x1B            AVC                                     0,200                   244                     6 107           41

<---- END FORUMS PASTE ---->

QUICK SUMMARY:

Disc Title: Пуччини - Мадам Баттерфляй (Staatsoper Hamburg) (2012) (Blu-ray 1080i, AVC, LPCM 2.0)
Disc Size: 21 940 022 074 bytes
Protection: AACS
BD-Java: No
Playlist: 00002.MPLS
Size: 353 298 432 bytes
Length: 0:02:51.504
Total Bitrate: 16,48 Mbps
Video: MPEG-4 AVC Video / 13955 kbps / 1080i / 29,970 fps / 16:9 / High Profile 4.1
Audio: Undetermined / LPCM Audio / 2.0 / 48 kHz / 1536 kbps / 16-bit

********************
PLAYLIST: 00005.MPLS
********************

<--- BEGIN FORUMS PASTE --->Код:
Код: Выделить всё
Total   Video
Title                                                           Codec   Length  Movie Size      Disc Size       Bitrate Bitrate Main Audio Track                          Secondary Audio Track
-----                                                           ------  ------- --------------  --------------  ------- ------- ------------------                        ---------------------
00005.MPLS                                                      AVC     0:02:20 300 251 136     21 940 022 074  17,10   13,96   LPCM 2.0 2304Kbps (48kHz/24-bit)

Код:
Код: Выделить всё
DISC INFO:

Disc Title:     Пуччини - Мадам Баттерфляй (Staatsoper Hamburg) (2012) (Blu-ray 1080i, AVC, LPCM 2.0)
Disc Size:      21 940 022 074 bytes
Protection:     AACS
BD-Java:        No
BDInfo:         0.5.8

PLAYLIST REPORT:

Name:                   00005.MPLS
Length:                 0:02:20.473 (h:m:s.ms)
Size:                   300 251 136 bytes
Total Bitrate:          17,10 Mbps

VIDEO:

Codec                   Bitrate             Description
-----                   -------             -----------
MPEG-4 AVC Video        13962 kbps          1080i / 29,970 fps / 16:9 / High Profile 4.1

AUDIO:

Codec                           Language        Bitrate         Description
-----                           --------        -------         -----------
LPCM Audio                      Undetermined    2304 kbps       2.0 / 48 kHz / 2304 kbps / 24-bit

FILES:

Name            Time In         Length          Size            Total Bitrate
----            -------         ------          ----            -------------
00007.M2TS      0:00:00.000     0:02:20.139     300 238 848     17 139
00000.M2TS      0:02:20.139     0:00:00.333     12 288          295

CHAPTERS:

Number          Time In         Length          Avg Video Rate  Max 1-Sec Rate  Max 1-Sec Time  Max 5-Sec Rate  Max 5-Sec Time  Max 10Sec Rate  Max 10Sec Time  Avg Frame Size  Max Frame Size  Max Frame Time
------          -------         ------          --------------  --------------  --------------  --------------  --------------  --------------  --------------  --------------  --------------  --------------
1               0:00:00.000     0:02:20.473     13 962 kbps     23 699 kbps     00:01:15.875    20 869 kbps     00:01:15.075    18 687 kbps     00:01:10.103    58 232 bytes    348 031 bytes   00:00:18.051

STREAM DIAGNOSTICS:

File            PID             Type            Codec           Language                Seconds                 Bitrate                 Bytes           Packets
----            ---             ----            -----           --------                --------------          --------------          -------------   -----
00007.M2TS      4113 (0x1011)   0x1B            AVC                                     140,040                 14 005                  245 152 693     1 334 819
00007.M2TS      4352 (0x1100)   0x80            LPCM            und (Undetermined)      140,040                 2 312                   40 472 432      224 224
00000.M2TS      4113 (0x1011)   0x1B            AVC                                     0,200                   244                     6 107           41

<---- END FORUMS PASTE ---->

QUICK SUMMARY:

Disc Title: Пуччини - Мадам Баттерфляй (Staatsoper Hamburg) (2012) (Blu-ray 1080i, AVC, LPCM 2.0)
Disc Size: 21 940 022 074 bytes
Protection: AACS
BD-Java: No
Playlist: 00005.MPLS
Size: 300 251 136 bytes
Length: 0:02:20.473
Total Bitrate: 17,10 Mbps
Video: MPEG-4 AVC Video / 13962 kbps / 1080i / 29,970 fps / 16:9 / High Profile 4.1
Audio: Undetermined / LPCM Audio / 2.0 / 48 kHz / 2304 kbps / 24-bit
Семпл


 
Не забывайте говорить Спасибо. Не уходите с раздачи!   
Торрент: Зарегистрирован [20 май 2016, 19:21] Для скачивания .torrent
необходима регистрация
Или скачать с помощью
MediaGet
Статус:
Проверен
 
.torrent скачан: 0 раз
Хэш: 50fbfd0ca23165e66f859270cef8e514b4b70a41
Размер: 20.43 ГБ (21 940 022 074 байт)
Стать Автором раздачи
 
 
Раздал: 100 ГБ
Скачал: 0 байт
Ратио: Seed.
Сообщения: 182341
Зарегистрирован: 09 апр 2015, 20:00


  • Похожие торренты
    Ответы
    Просмотры
    Последнее сообщение

Вернуться в Опера (DVD и HD Видео)

Кто сейчас на конференции

Сейчас эту тему просматривают: нет зарегистрированных пользователей и гости: 1

Ресурс не предоставляет электронные версии произведений, а занимается лишь коллекционированием и каталогизацией ссылок, присылаемых и публикуемых на форуме нашими читателями. Если вы являетесь правообладателем какого-либо представленного материала и не желаете чтобы ссылка на него находилась в нашем каталоге, свяжитесь с нами и мы незамедлительно удалим её. Файлы для обмена на трекере предоставлены пользователями сайта, и администрация не несёт ответственности за их содержание. Просьба не заливать файлы, защищенные авторскими правами, а также файлы нелегального содержания!