Тайны невидимого мира / Mysteries of the Unseen World (2013) BDRip [H.264/1080p] [VO]

 
 Статистика раздачи 
Размер: 6.5 ГБ   |  Зарегистрирован: 19 май 2016, 02:02   |   .torrent скачан: 0 раз
Сидеров: 1  [ 0 байт/сек ]     Личеров: 0  [ 0 байт/сек ]  
  

Тайны невидимого мира / Mysteries of the Unseen World (2013) BDRip [H.264/1080p] [VO]

Сообщение explosiveone » 19 май 2016, 02:02

Тайны невидимого мира / Mysteries of the Unseen World (2013) BDRip [H.264/1080p]

Производство: США / Day's End Pictures
Жанр: Документальный, Научно-популярный

Режиссер: Луи Шварцберг / Louie Schwartzberg
Участники: Эндрю Бэнкстон, Пэйтон Буржуа, Элизабет Доннер, Шелби Фаррелл, Жаклин Флеминг, Эрни Хак, Мело Mаtus, Джонатан Макрэ, Джесси Мур, Есеф Ратлев

Описание:
Мы живем в мире невидимой красоты, столь изящной и утонченной, что для невооруженного глаза она неразличима. Чтобы сделать ее доступной, Луи Шварцберг разрушает границы пространства и времени при помощи замедленной съемки, высокоскоростных камер и микро и макросъемки.



Продолжительность: 00:39:16
Качество видео: BDRip
Перевод: Одноголосый закадровый, профессиональный
Доп. инфо о переводе: Vert Dider

Видео: AVC/H.264, 1920x1080, ~23.2 Mbps
Аудио: AC3, 5 ch, 448 Kbps, CBR
Код:
Код: Выделить всё
Общее
Уникальный идентификатор                 : 191796745001310124645772660141660645248 (0x904AB59E15348EC1A4BD4F84CE3D2780)
Полное имя                               : F:\КИНО\tayni_nevidimogo_mira[1080p].mkv
Формат                                   : Matroska
Версия формата                           : Version 4 / Version 2
Размер файла                             : 6,50 Гбайт
Продолжительность                        : 39 м.
Режим общего битрейта                    : Переменный
Общий поток                              : 23,7 Мбит/сек
Дата кодирования                         : UTC 2016-04-06 10:09:52
Программа кодирования                    : mkvmerge v8.3.0 ('Over the Horizon') 64bit
Библиотека кодирования                   : libebml v1.3.1 + libmatroska v1.4.2

Видео
Идентификатор                            : 2
Формат                                   : AVC
Формат/Информация                        : Advanced Video Codec
Профиль формата                          : Main@L4
Параметр CABAC формата                   : Да
Параметр ReFrames формата                : 3 кадра
Идентификатор кодека                     : V_MPEG4/ISO/AVC
Продолжительность                        : 39 м.
Вид битрейта                             : Переменный
Битрейт                                  : 23,2 Мбит/сек
Максимальный битрейт                     : 24,0 Мбит/сек
Ширина                                   : 1920 пикселей
Высота                                   : 1080 пикселей
Соотношение сторон                       : 16:9
Режим частоты кадров                     : Переменный
Частота кадров                           : 24,000 кадра/сек
Частота кадров в оригинале               : 29,970 (30000/1001) кадров/сек
Стандарт вещания                         : NTSC
Цветовое пространство                    : YUV
Субдискретизация насыщенности            : 4:2:0
Битовая глубина                          : 8 бит
Тип развёртки                            : Прогрессивная
Бит/(Пиксели*Кадры)                      : 0.467
Размер потока                            : 6,38 Гбайт (98%)
Default                                  : Да
Forced                                   : Нет
Цветовой диапазон                        : Limited

Аудио
Идентификатор                            : 1
Формат                                   : AC-3
Формат/Информация                        : Audio Coding 3
Расширение режима                        : CM (complete main)
Параметр Endianness формата              : Big
Идентификатор кодека                     : A_AC3
Продолжительность                        : 39 м.
Вид битрейта                             : Постоянный
Битрейт                                  : 448 Кбит/сек
Каналы                                   : 5 каналов
Расположение каналов                     : Front: L C R, Side: L R
Частота                                  : 44,1 КГц
Частота кадров                           : 28,711 кадров/сек (1536 spf)
Метод сжатия                             : С потерями
Задержка видео                           : -67 мс.
Размер потока                            : 126 Мбайт (2%)
Default                                  : Да
Forced                                   : Нет

Скриншоты:



Время раздачи: с 18:00 до 23:00 (до появления первых 3-5 скачавших)
 
Не забывайте говорить Спасибо. Не уходите с раздачи!   
Торрент: Зарегистрирован [19 май 2016, 02:02] Скачать торрент
Скачать торрент
[ Размер 17.02 КБ / Просмотров 130 ]
Статус:
Проверен
 
.torrent скачан: 0 раз
Хэш: f1f86b69a7c1916ae8440779dcd9fa81cec77731
Размер: 6.5 ГБ (6 979 384 654 байт)
Стать Автором раздачи
 
 
Раздал: 100 ГБ
Скачал: 0 байт
Ратио: Seed.
Сообщения: 104253
Зарегистрирован: 09 апр 2015, 22:31


  • Похожие торренты
    Ответы
    Просмотры
    Последнее сообщение

Вернуться в Интересно обо всем

Ресурс не предоставляет электронные версии произведений, а занимается лишь коллекционированием и каталогизацией ссылок, присылаемых и публикуемых на форуме нашими читателями. Если вы являетесь правообладателем какого-либо представленного материала и не желаете чтобы ссылка на него находилась в нашем каталоге, свяжитесь с нами и мы незамедлительно удалим её. Файлы для обмена на трекере предоставлены пользователями сайта, и администрация не несёт ответственности за их содержание. Просьба не заливать файлы, защищенные авторскими правами, а также файлы нелегального содержания!
cron