Гримм / Grimm (2011-2015) WEB-DLRip [H.264] (Сезон 1-5, серии 1-108 из 110) LostFilm [MP4|1280x720]

 
 Статистика раздачи 
Размер: 137.58 ГБ   |  Зарегистрирован: 17 май 2016, 23:25   |   .torrent скачан: 0 раз
Сидеров: 1  [ 0 байт/сек ]     Личеров: 0  [ 0 байт/сек ]  
  

Гримм / Grimm (2011-2015) WEB-DLRip [H.264] (Сезон 1-5, серии 1-108 из 110) LostFilm [MP4|1280x720]

Сообщение i926 » 17 май 2016, 23:25

Гримм / Grimm (2011-2015) WEB-DLRip (Сезон 1-5, серии 1-108 из 110) LostFilm

«Not your usual suspects»
Производство: США
Жанр: ужасы, фэнтези, драма, детектив

Режиссер: Норберто Барба, Терренс О’Хара, Стивен ДеПол
Актеры: Дэйв Гвинтоли, Расселл Хорнсби, Битси Таллоч, Сайлас Уэйр Митчелл, Саша Ройз, Регги Ли, Клэр Коффи, Айанна Беркшир, Кейт Бёртон, Тим Бэгли и др.

Описание:
Ник Бёркхардт - детектив отдела по расследованию убийств из Портленда. Волею судьбы он также является одним из последних потомков семейства Гримм, члены которого из века в век занимаются истреблением сверхъестественных монстров, живущих в мире людей.
Ник, как и все его предки, способен видеть истинную сущность нечисти, под какой бы маской она не пряталась.
Узнав о своей судьбе, Ник принимает «вечный бой» против потустороннего зла, и теперь должен защищать от него людей.
В ходе своих расследований детектив Бёркхарт приобретает союзников в лице своей девушки, напарника Хэнка Гриффина, а также «перевоспитанного» потрошителя Эдди Монро ...



Продолжительность: ~ 00:43:00 серия
Качество видео: WEB-DLRip 720p
Перевод: Многоголосый закадровый, профессиональный - LostFilm
Реклама: присутствует заставка и логотип LostFilm

Видео: AVC/H.264 (High@L3.1), 1280x720 (16:9), ~4041 Кбит/сек
Аудио: AAC, 2 канала, 192 Кбит/сек - русский (многоголосый закадровый)
Код:
Код: Выделить всё
Полное имя                               : D:\Grimm_WEB-DL720p_x264_LostFilm_[NNM-CLUB]\сезон 1\Grimm.S01E01.720p.WEB.rus.LostFilm.TV.mp4
Формат                                   : MPEG-4
Профиль формата                          : Base Media
Идентификатор кодека                     : isom
Размер файла                             : 1,28 Гбайт
Продолжительность                        : 43 м.
Общий поток                              : 4240 Кбит/сек
Программа кодирования                    : Lavf55.12.100

Видео
Идентификатор                            : 2
Формат                                   : AVC
Формат/Информация                        : Advanced Video Codec
Профиль формата                          :
Параметр CABAC формата                   : Да
Параметр ReFrames формата                : 4 кадра
Идентификатор кодека                     : avc1
Идентификатор кодека/Информация          : Advanced Video Coding
Продолжительность                        : 43 м.
Битрейт                                  : 4041 Кбит/сек
Ширина                                   : 1280 пикселей
Высота                                   : 720 пикселей
Соотношение сторон                       : 16:9
Режим частоты кадров                     : Переменный
Частота кадров                           : 23,976 кадра/сек
Минимальная частота кадров               : 23,810 кадра/сек
Максимальная частота кадров              : 24,390 кадра/сек
Цветовое пространство                    : YUV
Субдискретизация насыщенности            : 4:2:0
Битовая глубина                          : 8 бит
Тип развёртки                            : Прогрессивная
Бит/(Пиксели*Кадры)                      : 0.183
Размер потока                            : 1,22 Гбайт (95%)
Библиотека кодирования                   : x264 core 112 r1834 a51816a
Настройки программы                      : cabac=1 / ref=1 / deblock=1:0:0 / analyse=0x3:0x113 / me=hex / subme=7 / psy=1 / psy_rd=1.00:0.00 / mixed_ref=0 / me_range=16 / chroma_me=1 / trellis=1 / 8x8dct=1 / cqm=0 / deadzone=21,11 / fast_pskip=1 / chroma_qp_offset=-2 / threads=6 / sliced_threads=0 / nr=0 / decimate=1 / interlaced=0 / constrained_intra=0 / bframes=3 / b_pyramid=2 / b_adapt=1 / b_bias=0 / direct=1 / weightb=1 / open_gop=0 / weightp=2 / keyint=250 / keyint_min=25 / scenecut=40 / intra_refresh=0 / rc_lookahead=40 / rc=2pass / mbtree=1 / bitrate=4041 / ratetol=1.0 / qcomp=0.60 / qpmin=0 / qpmax=51 / qpstep=4 / cplxblur=20.0 / qblur=0.5 / ip_ratio=1.40 / aq=1:1.00

Аудио
Идентификатор                            : 1
Формат                                   : AAC
Формат/Информация                        : Advanced Audio Codec
Профиль формата                          : LC
Идентификатор кодека                     : 40
Продолжительность                        : 43 м.
Duration_LastFrame                       : -9 мс.
Вид битрейта                             : Постоянный
Битрейт                                  : 192 Кбит/сек
Каналы                                   : 2 канала
Расположение каналов                     : Front: L R
Частота                                  : 48,0 КГц
Метод сжатия                             : С потерями
Размер потока                            : 59,5 Мбайт (5%)
Код:
Код: Выделить всё
Полное имя                               : D:\Grimm_WEB-DL720p_x264_LostFilm_[NNM-CLUB]\сезон 2\Grimm.S02E01.720p.WEB.rus.LostFilm.TV.mp4
Формат                                   : MPEG-4
Профиль формата                          : Base Media
Идентификатор кодека                     : isom
Размер файла                             : 1,29 Гбайт
Продолжительность                        : 43 м.
Общий поток                              : 4239 Кбит/сек
Программа кодирования                    : Lavf55.12.100

Видео
Идентификатор                            : 2
Формат                                   : AVC
Формат/Информация                        : Advanced Video Codec
Профиль формата                          :
Параметр CABAC формата                   : Да
Параметр ReFrames формата                : 4 кадра
Идентификатор кодека                     : avc1
Идентификатор кодека/Информация          : Advanced Video Coding
Продолжительность                        : 43 м.
Битрейт                                  : 4041 Кбит/сек
Ширина                                   : 1280 пикселей
Высота                                   : 720 пикселей
Соотношение сторон                       : 16:9
Режим частоты кадров                     : Переменный
Частота кадров                           : 23,976 кадра/сек
Минимальная частота кадров               : 23,810 кадра/сек
Максимальная частота кадров              : 24,390 кадра/сек
Цветовое пространство                    : YUV
Субдискретизация насыщенности            : 4:2:0
Битовая глубина                          : 8 бит
Тип развёртки                            : Прогрессивная
Бит/(Пиксели*Кадры)                      : 0.183
Размер потока                            : 1,23 Гбайт (95%)
Библиотека кодирования                   : x264 core 112 r1834 a51816a
Настройки программы                      : cabac=1 / ref=1 / deblock=1:0:0 / analyse=0x3:0x113 / me=hex / subme=7 / psy=1 / psy_rd=1.00:0.00 / mixed_ref=0 / me_range=16 / chroma_me=1 / trellis=1 / 8x8dct=1 / cqm=0 / deadzone=21,11 / fast_pskip=1 / chroma_qp_offset=-2 / threads=6 / sliced_threads=0 / nr=0 / decimate=1 / interlaced=0 / constrained_intra=0 / bframes=3 / b_pyramid=2 / b_adapt=1 / b_bias=0 / direct=1 / weightb=1 / open_gop=0 / weightp=2 / keyint=250 / keyint_min=25 / scenecut=40 / intra_refresh=0 / rc_lookahead=40 / rc=2pass / mbtree=1 / bitrate=4041 / ratetol=1.0 / qcomp=0.60 / qpmin=0 / qpmax=51 / qpstep=4 / cplxblur=20.0 / qblur=0.5 / ip_ratio=1.40 / aq=1:1.00

Аудио
Идентификатор                            : 1
Формат                                   : AAC
Формат/Информация                        : Advanced Audio Codec
Профиль формата                          : LC
Идентификатор кодека                     : 40
Продолжительность                        : 43 м.
Duration_LastFrame                       : -9 мс.
Вид битрейта                             : Постоянный
Битрейт                                  : 192 Кбит/сек
Каналы                                   : 2 канала
Расположение каналов                     : Front: L R
Частота                                  : 48,0 КГц
Метод сжатия                             : С потерями
Размер потока                            : 59,6 Мбайт (5%)
Код:
Код: Выделить всё
Полное имя                               : D:\Grimm_WEB-DL720p_x264_LostFilm_[NNM-CLUB]\сезон 3\Grimm.S03E01.720p.WEB.rus.LostFilm.TV.mp4
Формат                                   : MPEG-4
Профиль формата                          : Base Media
Идентификатор кодека                     : isom
Размер файла                             : 1,32 Гбайт
Продолжительность                        : 46 м.
Режим общего битрейта                    : Переменный
Общий поток                              : 4075 Кбит/сек
Коллекция                                : Гримм
Сезон                                    : 3
Альбом                                   : Гримм, Сезон 3
Альбом/Исполнитель                       : Гримм
Часть                                    : 1
Часть/Положение                          : 3
Трек                                     : Неблагодарный мертвец
Трек/Положение                           : 1
Исполнитель                              : Гримм
Жанр                                     : Sci-Fi & Fantasy
Тип содержимого                          : TV Show
Дата записи                              : 2013
Дата кодирования                         : UTC 2013-10-28 17:46:17
Дата пометки                             : UTC 2013-10-29 17:49:24
Программа кодирования                    : LostCoder
Правообладатель                          : LostFilm.TV (c)
Обложка                                  : Yes
Примечание                               : Действие происходит в современном Портленде, где детектив из отдела убийств узнает, что он потомок группы охотников, известных как "Гриммы", которые сражаются со зловещими персонажами из сказок их знаменитого предка.
Part_ID                                  : 301

Видео
Идентификатор                            : 1
Формат                                   : AVC
Формат/Информация                        : Advanced Video Codec
Профиль формата                          :
Параметр CABAC формата                   : Нет
Параметр ReFrames формата                : 4 кадра
Идентификатор кодека                     : avc1
Идентификатор кодека/Информация          : Advanced Video Coding
Продолжительность                        : 46 м.
Битрейт                                  : 4000 Кбит/сек
Максимальный битрейт                     : 6098 Кбит/сек
Ширина                                   : 1280 пикселей
Высота                                   : 720 пикселей
Соотношение сторон                       : 16:9
Режим частоты кадров                     : Переменный
Частота кадров                           : 29,970 кадров/сек
Минимальная частота кадров               : 29,970 кадров/сек
Максимальная частота кадров              : 29,980 кадров/сек
Цветовое пространство                    : YUV
Субдискретизация насыщенности            : 4:2:0
Битовая глубина                          : 8 бит
Тип развёртки                            : Прогрессивная
Бит/(Пиксели*Кадры)                      : 0.145
Размер потока                            : 1,28 Гбайт (97%)
Библиотека кодирования                   : x264 core 112 r1834 a51816a
Настройки программы                      : cabac=0 / ref=3 / deblock=1:0:0 / analyse=0x1:0x111 / me=hex / subme=7 / psy=1 / psy_rd=1.00:0.00 / mixed_ref=1 / me_range=16 / chroma_me=1 / trellis=1 / 8x8dct=0 / cqm=0 / deadzone=21,11 / fast_pskip=1 / chroma_qp_offset=-2 / threads=6 / sliced_threads=0 / nr=0 / decimate=1 / interlaced=0 / constrained_intra=0 / bframes=3 / b_pyramid=2 / b_adapt=1 / b_bias=0 / direct=1 / weightb=1 / open_gop=0 / weightp=2 / keyint=250 / keyint_min=25 / scenecut=40 / intra_refresh=0 / rc_lookahead=40 / rc=abr / mbtree=1 / bitrate=4000 / ratetol=1.0 / qcomp=0.60 / qpmin=0 / qpmax=51 / qpstep=4 / vbv_maxrate=5000 / vbv_bufsize=2000 / ip_ratio=1.40 / aq=1:1.00 / nal_hrd=none
Язык                                     : English
Дата пометки                             : UTC 2013-10-28 17:46:47

Аудио
Идентификатор                            : 2
Формат                                   : AAC
Формат/Информация                        : Advanced Audio Codec
Профиль формата                          : LC
Идентификатор кодека                     : 40
Продолжительность                        : 46 м.
Вид битрейта                             : Переменный
Битрейт                                  : 121 Кбит/сек
Максимальный битрейт                     : 178 Кбит/сек
Каналы                                   : 2 канала
Расположение каналов                     : Front: L R
Частота                                  : 48,0 КГц
Метод сжатия                             : С потерями
Размер потока                            : 40,2 Мбайт (3%)
Дата кодирования                         : UTC 2013-10-28 17:46:45
Дата пометки                             : UTC 2013-10-28 17:46:47
Код:
Код: Выделить всё
Полное имя                               : D:\Grimm_WEB-DL720p_x264_LostFilm_[NNM-CLUB]\сезон 4\Grimm.S04E01.720p.WEB.rus.LostFilm.TV.mp4
Формат                                   : MPEG-4
Профиль формата                          : Base Media
Идентификатор кодека                     : isom
Размер файла                             : 1,29 Гбайт
Продолжительность                        : 43 м.
Режим общего битрейта                    : Переменный
Общий поток                              : 4274 Кбит/сек
Коллекция                                : Гримм
Сезон                                    : 4
Альбом                                   : Гримм, Сезон 4
Альбом/Исполнитель                       : Гримм
Часть                                    : 1
Часть/Положение                          : 4
Трек                                     : Спасибо за воспоминания
Трек/Положение                           : 1
Исполнитель                              : Гримм
Жанр                                     : Sci-Fi & Fantasy
Тип содержимого                          : TV Show
Дата записи                              : 2014
Дата кодирования                         : UTC 2014-10-26 19:03:14
Дата пометки                             : UTC 2014-10-26 19:03:14
Программа кодирования                    : Yamb 2.1.0.0 [http:/yamb.unite-video.com] / LostCoder
Правообладатель                          : LostFilm.TV (c)
Обложка                                  : Yes
Примечание                               : Действие происходит в современном Портленде, где детектив из отдела убийств узнает, что он потомок группы охотников, известных как "Гриммы".
Part_ID                                  : 401

Видео
Идентификатор                            : 1
Формат                                   : AVC
Формат/Информация                        : Advanced Video Codec
Профиль формата                          :
Параметр CABAC формата                   : Нет
Параметр ReFrames формата                : 2 кадра
Идентификатор кодека                     : avc1
Идентификатор кодека/Информация          : Advanced Video Coding
Продолжительность                        : 43 м.
Битрейт                                  : 4000 Кбит/сек
Максимальный битрейт                     : 15,9 Мбит/сек
Ширина                                   : 1280 пикселей
Высота                                   : 720 пикселей
Соотношение сторон                       : 16:9
Режим частоты кадров                     : Переменный
Частота кадров                           : 24,000 кадра/сек
Минимальная частота кадров               : 23,974 кадра/сек
Максимальная частота кадров              : 29,980 кадров/сек
Цветовое пространство                    : YUV
Субдискретизация насыщенности            : 4:2:0
Битовая глубина                          : 8 бит
Тип развёртки                            : Прогрессивная
Бит/(Пиксели*Кадры)                      : 0.181
Размер потока                            : 1,21 Гбайт (94%)
Библиотека кодирования                   : x264 core 112 r1834 a51816a
Настройки программы                      : cabac=0 / ref=3 / deblock=1:0:0 / analyse=0x1:0x111 / me=hex / subme=7 / psy=1 / psy_rd=1.00:0.00 / mixed_ref=1 / me_range=16 / chroma_me=1 / trellis=1 / 8x8dct=0 / cqm=0 / deadzone=21,11 / fast_pskip=1 / chroma_qp_offset=-2 / threads=6 / sliced_threads=0 / nr=0 / decimate=1 / interlaced=0 / constrained_intra=0 / bframes=3 / b_pyramid=2 / b_adapt=1 / b_bias=0 / direct=1 / weightb=1 / open_gop=0 / weightp=2 / keyint=250 / keyint_min=25 / scenecut=40 / intra_refresh=0 / rc_lookahead=40 / rc=abr / mbtree=1 / bitrate=4000 / ratetol=1.0 / qcomp=0.60 / qpmin=0 / qpmax=51 / qpstep=4 / vbv_maxrate=5000 / vbv_bufsize=2000 / ip_ratio=1.40 / aq=1:1.00 / nal_hrd=none
Язык                                     : English
Дата пометки                             : UTC 2014-10-26 19:03:36
Основные цвета                           : BT.709
Характеристики трансфера                 : BT.709
Коэффициенты матрицы                     : BT.709

Аудио
Идентификатор                            : 2
Формат                                   : AAC
Формат/Информация                        : Advanced Audio Codec
Профиль формата                          : LC
Идентификатор кодека                     : 40
Продолжительность                        : 43 м.
Вид битрейта                             : Переменный
Битрейт                                  : 265 Кбит/сек
Максимальный битрейт                     : 329 Кбит/сек
Каналы                                   : 2 канала
Расположение каналов                     : Front: L R
Частота                                  : 48,0 КГц
Метод сжатия                             : С потерями
Размер потока                            : 83,0 Мбайт (6%)
Дата кодирования                         : UTC 2014-10-26 19:03:34
Дата пометки                             : UTC 2014-10-26 19:03:36
Код:
Код: Выделить всё
Полное имя                               : P:\Grimm_WEB-DL720p_x264_LostFilm_[NNM-CLUB]\сезон 5\Grimm.S05E01.720p.WEB.rus.LostFilm.TV.mp4
Формат                                   : MPEG-4
Профиль формата                          : Base Media
Идентификатор кодека                     : isom
Размер файла                             : 1,28 Гбайт
Продолжительность                        : 43 м.
Режим общего битрейта                    : Переменный
Общий поток                              : 4238 Кбит/сек
Коллекция                                : Гримм
Сезон                                    : 5
Альбом                                   : Гримм, Сезон 5
Альбом/Исполнитель                       : Гримм
Часть                                    : 1
Часть/Положение                          : 5
Трек                                     : Идентификация Гримма
Трек/Положение                           : 1
Исполнитель                              : Гримм
Жанр                                     : Sci-Fi & Fantasy
Тип содержимого                          : TV Show
Дата записи                              : 2015
Дата кодирования                         : UTC 2015-11-01 15:30:51
Дата пометки                             : UTC 2015-11-01 15:30:51
Программа кодирования                    : Yamb 2.1.0.0 [http:/yamb.unite-video.com] / LostCoder
Правообладатель                          : LostFilm.TV (c)
Обложка                                  : Yes
Примечание                               : Действие происходит в современном Портленде, где детектив из отдела убийств узнает, что он потомок группы охотников, известных как "Гриммы"
Part_ID                                  : 501

Видео
Идентификатор                            : 1
Формат                                   : AVC
Формат/Информация                        : Advanced Video Codec
Профиль формата                          :
Параметр CABAC формата                   : Нет
Параметр ReFrames формата                : 2 кадра
Идентификатор кодека                     : avc1
Идентификатор кодека/Информация          : Advanced Video Coding
Продолжительность                        : 43 м.
Битрейт                                  : 4000 Кбит/сек
Максимальный битрейт                     : 12,8 Мбит/сек
Ширина                                   : 1280 пикселей
Высота                                   : 720 пикселей
Соотношение сторон                       : 16:9
Режим частоты кадров                     : Переменный
Частота кадров                           : 24,000 кадра/сек
Минимальная частота кадров               : 23,974 кадра/сек
Максимальная частота кадров              : 29,980 кадров/сек
Цветовое пространство                    : YUV
Субдискретизация насыщенности            : 4:2:0
Битовая глубина                          : 8 бит
Тип развёртки                            : Прогрессивная
Бит/(Пиксели*Кадры)                      : 0.181
Размер потока                            : 1,20 Гбайт (94%)
Библиотека кодирования                   : x264 core 112 r1834 a51816a
Настройки программы                      : cabac=0 / ref=3 / deblock=1:0:0 / analyse=0x1:0x111 / me=hex / subme=7 / psy=1 / psy_rd=1.00:0.00 / mixed_ref=1 / me_range=16 / chroma_me=1 / trellis=1 / 8x8dct=0 / cqm=0 / deadzone=21,11 / fast_pskip=1 / chroma_qp_offset=-2 / threads=12 / sliced_threads=0 / nr=0 / decimate=1 / interlaced=0 / constrained_intra=0 / bframes=3 / b_pyramid=2 / b_adapt=1 / b_bias=0 / direct=1 / weightb=1 / open_gop=0 / weightp=2 / keyint=250 / keyint_min=25 / scenecut=40 / intra_refresh=0 / rc_lookahead=40 / rc=abr / mbtree=1 / bitrate=4000 / ratetol=1.0 / qcomp=0.60 / qpmin=0 / qpmax=51 / qpstep=4 / vbv_maxrate=5000 / vbv_bufsize=2000 / ip_ratio=1.40 / aq=1:1.00 / nal_hrd=none
Язык                                     : English
Дата пометки                             : UTC 2015-11-01 15:31:53
Основные цвета                           : BT.709
Характеристики трансфера                 : BT.709
Коэффициенты матрицы                     : BT.709

Аудио
Идентификатор                            : 2
Формат                                   : AAC
Формат/Информация                        : Advanced Audio Codec
Профиль формата                          : LC
Идентификатор кодека                     : 40
Продолжительность                        : 43 м.
Вид битрейта                             : Переменный
Битрейт                                  : 242 Кбит/сек
Максимальный битрейт                     : 342 Кбит/сек
Каналы                                   : 2 канала
Расположение каналов                     : Front: L R
Частота                                  : 48,0 КГц
Метод сжатия                             : С потерями
Размер потока                            : 74,6 Мбайт (6%)
Дата кодирования                         : UTC 2015-11-01 15:31:51
Дата пометки                             : UTC 2015-11-01 15:31:53
01 - Пилот / Pilot
02 - Медвежья натура / Bears Will Be Bears
03 - Осторожно, пчёлы! / Beeware
04 - Одинокие сердца / Lonelyhearts
05 - Пляска смерти / Danse Macabre
06 - Три злых волка / The Three Bad Wolves
07 - Брось мне косу свою / Let Your Hair Down
08 - Конец огры / Game Ogre
09 - О мыши и человеке / Of Mouse and Man
10 - Мясорубка / Organ Grinder
11 - Тарантелла / Tarantella
12 - Гримм- победитель / Last Grimm Standing
13 - Три монетки в рыжехвосте / Three Coins in a Fuchsbau
14 - Пернатый змей / Plumed Serpent
15 - Остров грёз / Island of Dreams
16 - Чудо в перьях / The Thing with Feathers
17 - Любовная горячка / Love Sick
18 - Кошки-мышки / Cat and Mouse
19 - Предоставьте это бобрам / Leave It to Beavers
20 - И жили они недолго, но счастливо / Happily Ever Aftermath
21 - Большеноги / Big Feet
22 - Женщина в черном / Woman in Black
01 - Сквернозуб / Bad Teeth
02 - Поцелуй / The Kiss
03 - Восход дурной луны / Bad Moon Rising
04 - Игла / Quill
05 - Добрый пастырь / The Good Shepherd
06 - Через мой труп / Over My Dead Body
07 - Чертёнок в бутылке / The Bottle Imp
08 - Другая сторона / The Other Side
09 - Ла Йорона / La Llorona
10 - Смертный час / The Hour of Death
11 - Тот, кто служит и защищает / To Protect and Serve Man
12 - Ведьмина пора / Season of the Hexenbiest
13 - Лицом к лицу / Face Off
14 - Прирождённое существо / Natural Born Wesen
15 - Господин Песочный человек / Mr. Sandman
16 - Безымянный / Nameless
17 - Один сердитый рыжехвост / One Angry Fuchsbau
18 - Огненное кольцо / Ring of Fire
19 - Вымирающий вид / Endangered
20 - Поцелуй музы / Kiss of the Muse
21 - Ожившие мертвецы / The Waking Dead
22 - Спи, милый Гримм / Goodnight, Sweet Grimm
01 - Неблагодарный мертвец / The Ungrateful Dead
02 - Посттравматический зомби-синдром / PTZD
03 - Блюдо, которое подают холодным / A Dish Best Served Cold
04 - На один раз / One Night Stand
05 - Кукуй / El Cucuy
06 - Сказки для наших малышей / Stories We Tell Our Young
07 - Хладнокровус / Cold Blooded
08 - Двенадцать дней Дрожьдества / Twelve Days of Krampus
09 - Красная угроза / Red Menace
10 - Глаза свидетеля / Eyes of the Beholder
11 - Хороший солдат / The Good Soldier
12 - Дикая охота / The Wild Hunt
13 - Откровение / Revelation
14 - Мама дорогая / Mommy Dearest
15 - Когда-то мы были богами / Once We Were Gods
16 - Шоу должно продолжаться / The Show Must Go On
17 - Синхроничность / Synchronicity
18 - Закон жертвы / The Law of Sacrifice
19 - Пришла Беда – отворяй ворота / Nobody Knows the Trubel I've Seen
20 - Моё прекрасное Существо / My Fair Wesen
21 - Наследие / The Inheritance
22 - Блондинка с амбициями / Blond Ambition
01 - Спасибо за воспоминания / Thanks for the Memories
02 - Голова осьминога / Octopus Head
03 - Последний бой / Last Fight
04 - Смертельная молитва / Dyin' on a Prayer
05 - Спасите, Луисон! / Cry Luison
06 - Дорога слёз / Highway of Tears
07 - Гримм, укравший Рождество / The Grimm Who Stole Christmas
08 - Чупакабра / Chupacabra
09 - Орден Чистой крови / Wesenrein
10 - Трибунал / Tribunal
11 - Смерть разлучит нас / Death Do Us Part
12 - Жандарм / Maréchaussée
13 - Испытание огнём / Trial by Fire
14 - Злосчастье / Bad Luck
15 - Двойное свидание / Double Date
16 - Разбивающая сердца / Heartbreaker
17 - Зимнее логово / Hibernaculum
18 - Мишипишу / Mishipeshu
19 - Железный Ганс / Iron Hans
20 - Вы не знаете Джека / You Don't Know Jack
21 - Головная боль / Headache
22 - Без пощады / Cry Havoc
01 - Идентификация Гримма / The Grimm Identity
02 - Прямая и существенная угроза / Clear and Wesen Danger
03 - Пропавшие детки / Lost Boys
04 - Дева в награду / Maiden Quest
05 - Крысиный король / The Rat King
06 - Ночь существ / Wesen Nacht
07 - Ева-разрушительница / Eve of Destruction
08 - Рептильная дисфункция / A Reptile Dysfunction
09 - Несчастливые звёзды / Star-Crossed
10 - Карта семи рыцарей / Map of the Seven Knights
11 - Key Move / Ключевой ход
12 - В Шварцвальде / Into the Schwarzwald
13 - Молчание масок / Silence of the Slams
14 - Lycanthropia / Ликантропия
15 - Внешность обманчива / Skin Deep
16 - Верующий / The Believer
17 - Инугами / Inugami
18 - Хороший до мозга костей / Good to the Bone
19 - Укрощение Ву / The Taming of the Wu
20 - Плохая ночь / Bad Night
21 - Set Up
22 - The Beginning of the End
Внимание! Раздача ведётся путём добавления новых серий; при каждом добавлении создаётся новый торрент.
Чтобы начать докачку новой серии, пользователям необходимо сделать следующее:
1. Остановить скачивание;
2. Удалить старый торрент у себя из клиента (старые серии удалять не надо);
3. Скачать новый торрент и запустить его у себя в клиенте вместо старого, при этом указать клиенту путь в старую папку куда и должно происходить скачивание новых серий. Ваш клиент при этом должен произвести хеширование (проверку) старой папки и будет докачивать только те серии, которых у вас ещё нет. Старые серии при этом не удаляются, а продолжают раздаваться! Eсли вы уже удалили старые серии, то предотвратить повторную закачку старых серий можно, отжав галочку в соответствующих местах при запуске нового торрента.

Скриншоты:



17.05.2016. Добавлена 20-я серия 5-го сезона.

Время раздачи:
24/7 - круглосуточно
(до первых 5-ти сидов - потом по возможности)
 
Не забывайте говорить Спасибо. Не уходите с раздачи!   
Торрент: Зарегистрирован [17 май 2016, 23:25] Для скачивания .torrent
необходима регистрация
Или скачать с помощью
MediaGet
Статус:
Проверен
 
.torrent скачан: 0 раз
Хэш: 97b7633b4bbbe8cc0f2ec4a3ba2b5e460dd573dc
Размер: 137.58 ГБ (147 722 327 818 байт)
Стать Автором раздачи
 
Аватара пользователя
Главный редактор
Главный редактор
 
Раздал: 15.43 ТБ
Скачал: 13.78 ТБ
Ратио: 1.120
Сообщения: 65091
Зарегистрирован: 01 мар 2011, 23:07


  • Похожие торренты
    Ответы
    Просмотры
    Последнее сообщение

Вернуться в Видео для мобильных устройств

Ресурс не предоставляет электронные версии произведений, а занимается лишь коллекционированием и каталогизацией ссылок, присылаемых и публикуемых на форуме нашими читателями. Если вы являетесь правообладателем какого-либо представленного материала и не желаете чтобы ссылка на него находилась в нашем каталоге, свяжитесь с нами и мы незамедлительно удалим её. Файлы для обмена на трекере предоставлены пользователями сайта, и администрация не несёт ответственности за их содержание. Просьба не заливать файлы, защищенные авторскими правами, а также файлы нелегального содержания!
cron