Кости / Bones (2015) WEB-DLRip [H.264] (Сезон 11, серии 1-14 из 22) BaibaKo [MP4|720x400]

 
 Статистика раздачи 
Размер: 8.12 ГБ   |  Зарегистрирован: 16 май 2016, 18:27   |   .torrent скачан: 0 раз
Сидеров: 1  [ 0 байт/сек ]     Личеров: 0  [ 0 байт/сек ]  
  

Кости / Bones (2015) WEB-DLRip [H.264] (Сезон 11, серии 1-14 из 22) BaibaKo [MP4|720x400]

Сообщение i926 » 16 май 2016, 18:27

Кости / Bones (2015) WEB-DLRip (сезон 11, серии 1-14 из 22) BaibaKo

«To Unravel A Murder, You Have To Strip It To The Bone»
Производство: США
Жанр: драма, криминал, детектив

Режиссер: Рэнди Зиск, Дуайт Литтл, Майкл Ланж, Чад Лоу
Актеры: Эмили Дешанель, Дэвид Бореаназ, Микаэла Конлин, Ти-Джей Тайн, Тамара Тейлор, Джон Бойд, Патриция Белчер, Педж Вахдат, Майкл Терри, Юджин Бирд, Карла Галло и др.

Описание:
Прошло шесть месяцев с того момента, как мы последний раз видели счастливую семью Бут-Бреннан. Они наслаждаются семейной идиллией в почти идеальном мире вместе со своей маленькой дочерью и новорождённым сыном,
но судьба уже приготовила для них очередную порцию испытаний и приключений...
С какими только преступлениями уже ни доводилось сталкиваться героям, но фантазия преступников безгранична, поэтому без работы ребята не останутся.



Продолжительность: ~ 00:43:00 серия
Качество видео: WEB-DLRip
Перевод: Многоголосый закадровый, профессиональный - BaibaKo
Автор перевода: Наталья Черненко
Озвучка: Лира Грим, Светлана Доманова, Татьяна Оболевич, Артемий Мирон и Виталий Ткаченко
Реклама: присутствуют голосовые вставки

Видео: AVC/H.264 (Baseline@L3.0), 720x400 (16:9), ~1536 Кбит/сек
Аудио #1: AAC, 2 канала, 160 Кбит/сек - русский (многоголосый закадровый)
Аудио #2: AAC, 2 канала, 160 Кбит/сек - английский (оригинальный)
Код:
Код: Выделить всё
Полное имя                               : M:\Bones_s11_WEB-DLRip_x264_BaibaKo_[NNM-CLUB]\Bones.s11e01.WEB-DLRip.x264.Rus.Eng.BaibaKo.tv.mp4
Формат                                   : MPEG-4
Профиль формата                          : Base Media
Идентификатор кодека                     : isom
Размер файла                             : 609 Мбайт
Продолжительность                        : 45 м.
Режим общего битрейта                    : Переменный
Общий поток                              : 1861 Кбит/сек
Дата кодирования                         : UTC 2015-12-16 05:07:09
Дата пометки                             : UTC 2015-12-16 05:07:09

Видео
Идентификатор                            : 1
Формат                                   : AVC
Формат/Информация                        : Advanced Video Codec
Профиль формата                          :
Параметр CABAC формата                   : Нет
Параметр ReFrames формата                : 3 кадра
Идентификатор кодека                     : avc1
Идентификатор кодека/Информация          : Advanced Video Coding
Продолжительность                        : 45 м.
Битрейт                                  : 1536 Кбит/сек
Максимальный битрейт                     : 9002 Кбит/сек
Ширина                                   : 720 пикселей
Высота                                   : 400 пикселей
Соотношение сторон                       : 16:9
Режим частоты кадров                     : Переменный
Частота кадров                           : 23,976 кадра/сек
Минимальная частота кадров               : 23,974 кадра/сек
Максимальная частота кадров              : 23,981 кадра/сек
Цветовое пространство                    : YUV
Субдискретизация насыщенности            : 4:2:0
Битовая глубина                          : 8 бит
Тип развёртки                            : Прогрессивная
Бит/(Пиксели*Кадры)                      : 0.222
Размер потока                            : 503 Мбайт (83%)
Библиотека кодирования                   : x264 core 142 r2479 dd79a61
Настройки программы                      : cabac=0 / ref=3 / deblock=1:0:0 / analyse=0x1:0x111 / me=hex / subme=7 / psy=1 / psy_rd=1.00:0.00 / mixed_ref=1 / me_range=16 / chroma_me=1 / trellis=1 / 8x8dct=0 / cqm=0 / deadzone=21,11 / fast_pskip=1 / chroma_qp_offset=-2 / threads=12 / lookahead_threads=2 / sliced_threads=0 / nr=0 / decimate=1 / interlaced=0 / bluray_compat=0 / constrained_intra=0 / bframes=0 / weightp=0 / keyint=240 / keyint_min=24 / scenecut=40 / intra_refresh=0 / rc_lookahead=40 / rc=2pass / mbtree=1 / bitrate=1536 / ratetol=1.0 / qcomp=0.60 / qpmin=0 / qpmax=69 / qpstep=4 / cplxblur=20.0 / qblur=0.5 / vbv_maxrate=10000 / vbv_bufsize=10000 / nal_hrd=none / filler=0 / ip_ratio=1.40 / aq=1:1.00
Дата кодирования                         : UTC 2036-02-06 06:28:16
Дата пометки                             : UTC 2015-12-16 05:07:22
Основные цвета                           : BT.709
Характеристики трансфера                 : BT.709
Коэффициенты матрицы                     : BT.709

Аудио #1
Идентификатор                            : 2
Формат                                   : AAC
Формат/Информация                        : Advanced Audio Codec
Профиль формата                          : LC
Идентификатор кодека                     : 40
Продолжительность                        : 45 м.
Вид битрейта                             : Переменный
Битрейт                                  : 160 Кбит/сек
Максимальный битрейт                     : 168 Кбит/сек
Каналы                                   : 2 канала
Расположение каналов                     : Front: L R
Частота                                  : 48,0 КГц
Метод сжатия                             : С потерями
Размер потока                            : 52,4 Мбайт (9%)
Язык                                     : Russian
Дата кодирования                         : UTC 2015-12-16 05:07:18
Дата пометки                             : UTC 2015-12-16 05:07:22

Аудио #2
Идентификатор                            : 3
Формат                                   : AAC
Формат/Информация                        : Advanced Audio Codec
Профиль формата                          : LC
Идентификатор кодека                     : 40
Продолжительность                        : 45 м.
Вид битрейта                             : Переменный
Битрейт                                  : 160 Кбит/сек
Максимальный битрейт                     : 168 Кбит/сек
Каналы                                   : 2 канала
Расположение каналов                     : Front: L R
Частота                                  : 48,0 КГц
Метод сжатия                             : С потерями
Размер потока                            : 52,4 Мбайт (9%)
Язык                                     : English
Дата кодирования                         : UTC 2015-12-16 05:07:20
Дата пометки                             : UTC 2015-12-16 05:07:22
01. The Loyalty in the Lie / Верность во лжи
02. The Brother in the Basement / Брат в подвале
03. The Donor in the Drink / Донор в водоёме
04. The Carpals in the Coy-Wolves / Кости в койволках
05. The Resurrection in the Remains / Воскресшие останки
06. The Senator in the Street Sweeper / Сенатор в мусоровозе
07. The Promise in the Palace / Обещание во дворце
08. High Treason in the Holiday Season / Государственная измена в сезон отпусков
09. The Cowboy in the Contest / Ковбой на состязании
10. The Doom in the Boom / Роковой взрыв
11. The Death in the Defense / Смерть адвоката
12. The Murder of the Meninist / Убийство андрониста
13. The Monster in the Closet / Монстр в шкафу
14. The Last Shot at a Second Chance / Последняя попытка второго шанса
15. The Fight in the Fixer
16. The Strike in the Chord
17. The Secret in the Service
18. Episode #11.18
19. The Head in the Abutment
20. Episode #11.20
21. The Jewel in the Crown
22. The Nightmare in the Nightmare
Внимание! Раздача ведётся путём добавления новых серий; при каждом добавлении создаётся новый торрент.
Чтобы начать докачку новой серии, пользователям необходимо сделать следующее:
1. Остановить скачивание;
2. Удалить старый торрент у себя из клиента (старые серии удалять не надо);
3. Скачать новый торрент и запустить его у себя в клиенте вместо старого, при этом указать клиенту путь в старую папку куда и должно происходить скачивание новых серий. Ваш клиент при этом должен произвести хеширование (проверку) старой папки и будет докачивать только те серии, которых у вас ещё нет. Старые серии при этом не удаляются, а продолжают раздаваться! Eсли вы уже удалили старые серии, то предотвратить повторную закачку старых серий можно, отжав галочку в соответствующих местах при запуске нового торрента.
Скриншоты




Время раздачи:
24/7 - круглосуточно
(до первых 5-ти сидов - потом по возможности)
 
Не забывайте говорить Спасибо. Не уходите с раздачи!   
Торрент: Зарегистрирован [16 май 2016, 18:27] Для скачивания .torrent
необходима регистрация
Или скачать с помощью
MediaGet
Статус:
Проверен
 
.torrent скачан: 0 раз
Хэш: 10f123b14005095a4b464737dad496ad60e70b23
Размер: 8.12 ГБ (8 719 419 801 байт)
Стать Автором раздачи
 
Аватара пользователя
Главный редактор
Главный редактор
 
Раздал: 15.43 ТБ
Скачал: 13.78 ТБ
Ратио: 1.120
Сообщения: 65091
Зарегистрирован: 01 мар 2011, 23:07


  • Похожие торренты
    Ответы
    Просмотры
    Последнее сообщение

Вернуться в Видео для мобильных устройств

Ресурс не предоставляет электронные версии произведений, а занимается лишь коллекционированием и каталогизацией ссылок, присылаемых и публикуемых на форуме нашими читателями. Если вы являетесь правообладателем какого-либо представленного материала и не желаете чтобы ссылка на него находилась в нашем каталоге, свяжитесь с нами и мы незамедлительно удалим её. Файлы для обмена на трекере предоставлены пользователями сайта, и администрация не несёт ответственности за их содержание. Просьба не заливать файлы, защищенные авторскими правами, а также файлы нелегального содержания!
cron