Нюша - Сборник видеоклипов (2009-2016) WEBRip [H.264/720p-LQ]

 
 Статистика раздачи 
Размер: 700.65 МБ   |  Зарегистрирован: 10 май 2016, 15:33   |   .torrent скачан: 0 раз
Сидеров: 1  [ 0 байт/сек ]     Личеров: 0  [ 0 байт/сек ]  
  

Нюша - Сборник видеоклипов (2009-2016) WEBRip [H.264/720p-LQ]

Сообщение explosiveone » 10 май 2016, 15:33

Нюша - Сборник видеоклипов (2009-2016) WEBRip

Производство: Россия
Жанр: Музыка, клипы

Треклист:
1. Больно
2. Вою на луну
3. Выбирать чудо
4. Выше
5. Где ты, там я
6. Леди N
7. Наедине
8. Не перебивай
9. Только
10. Целуй
11. Цунами
12. Это Новый год

Продолжительность: 00:46:04
Качество видео: WEBRip
Перевод: Отсутствует
Субтитры: нет

Видео: AVI/AVC/H.264, 1280x720 (16:9), 25.000 fps, ~2375 kbps, ~0.087 bit/pixel
Аудио: mp3, 2 ch, 128 kbps
Код:
Код: Выделить всё
Общее
Полное имя                               : Z:\home\user\Видео\Нюша - Вою на луну.avi
Формат                                   : AVI
Формат/Информация                        : Audio Video Interleave
Размер файла                             : 45,5 Мбайт
Продолжительность                        : 3 м. 34 с.
Общий поток                              : 1781 Кбит/сек
Программа кодирования                    : MEncoder SVN-r33883(20110719-gcc4.5.2)
Библиотека кодирования                   : MPlayer

Видео
Идентификатор                            : 0
Формат                                   : AVC
Формат/Информация                        : Advanced Video Codec
Профиль формата                          :
Параметр CABAC формата                   : Да
Параметр ReFrames формата                : 1 кадр
Идентификатор кодека                     : H264
Продолжительность                        : 3 м. 34 с.
Битрейт                                  : 1641 Кбит/сек
Ширина                                   : 1280 пикселей
Высота                                   : 720 пикселей
Соотношение сторон                       : 16:9
Режим частоты кадров                     : Переменный
Частота кадров                           : 25,000 кадров/сек
Цветовое пространство                    : YUV
Субдискретизация насыщенности            : 4:2:0
Битовая глубина                          : 8 бит
Тип развёртки                            : Прогрессивная
Бит/(Пиксели*Кадры)                      : 0.071
Размер потока                            : 41,9 Мбайт (92%)

Аудио
Идентификатор                            : 1
Формат                                   : MPEG Audio
Версия формата                           : Version 1
Профиль формата                          : Layer 3
Режим                                    : Joint stereo
Расширение режима                        : MS Stereo
Идентификатор кодека                     : 55
Идентификатор кодека/Подсказка           : MP3
Продолжительность                        : 3 м. 34 с.
Вид битрейта                             : Постоянный
Битрейт                                  : 128 Кбит/сек
Каналы                                   : 2 канала
Частота                                  : 44,1 КГц
Метод сжатия                             : С потерями
Размер потока                            : 3,27 Мбайт (7%)
Выравнивание                             : Соединение по промежуткам
Продолжительность промежутка             : 26  мс. (0,65 видеокадр)
Время предзагрузки промежутка            : 522  мс.
Библиотека кодирования                   : LAME3.98.4

Общее
Полное имя                               : Z:\home\user\Видео\Нюша - Выбирать чудо.avi
Формат                                   : AVI
Формат/Информация                        : Audio Video Interleave
Размер файла                             : 62,4 Мбайт
Продолжительность                        : 3 м. 51 с.
Общий поток                              : 2263 Кбит/сек
Программа кодирования                    : MEncoder SVN-r33883(20110719-gcc4.5.2)
Библиотека кодирования                   : MPlayer

Видео
Идентификатор                            : 0
Формат                                   : AVC
Формат/Информация                        : Advanced Video Codec
Профиль формата                          :
Параметр CABAC формата                   : Да
Параметр ReFrames формата                : 1 кадр
Идентификатор кодека                     : H264
Продолжительность                        : 3 м. 51 с.
Битрейт                                  : 2123 Кбит/сек
Ширина                                   : 1280 пикселей
Высота                                   : 720 пикселей
Соотношение сторон                       : 16:9
Режим частоты кадров                     : Переменный
Частота кадров                           : 25,000 кадров/сек
Цветовое пространство                    : YUV
Субдискретизация насыщенности            : 4:2:0
Битовая глубина                          : 8 бит
Тип развёртки                            : Прогрессивная
Бит/(Пиксели*Кадры)                      : 0.092
Размер потока                            : 58,5 Мбайт (94%)

Аудио
Идентификатор                            : 1
Формат                                   : MPEG Audio
Версия формата                           : Version 1
Профиль формата                          : Layer 3
Режим                                    : Joint stereo
Расширение режима                        : MS Stereo
Идентификатор кодека                     : 55
Идентификатор кодека/Подсказка           : MP3
Продолжительность                        : 3 м. 51 с.
Вид битрейта                             : Постоянный
Битрейт                                  : 128 Кбит/сек
Каналы                                   : 2 канала
Частота                                  : 44,1 КГц
Метод сжатия                             : С потерями
Размер потока                            : 3,53 Мбайт (6%)
Выравнивание                             : Соединение по промежуткам
Продолжительность промежутка             : 26  мс. (0,65 видеокадр)
Время предзагрузки промежутка            : 522  мс.
Библиотека кодирования                   : LAME3.98.4

Общее
Полное имя                               : Z:\home\user\Видео\Нюша - Не перебивай.avi
Формат                                   : AVI
Формат/Информация                        : Audio Video Interleave
Размер файла                             : 58,7 Мбайт
Продолжительность                        : 4 м. 7 с.
Общий поток                              : 1990 Кбит/сек
Программа кодирования                    : MEncoder SVN-r33883(20110719-gcc4.5.2)
Библиотека кодирования                   : MPlayer

Видео
Идентификатор                            : 0
Формат                                   : AVC
Формат/Информация                        : Advanced Video Codec
Профиль формата                          :
Параметр CABAC формата                   : Да
Параметр ReFrames формата                : 1 кадр
Идентификатор кодека                     : H264
Продолжительность                        : 4 м. 7 с.
Битрейт                                  : 1850 Кбит/сек
Ширина                                   : 1280 пикселей
Высота                                   : 720 пикселей
Соотношение сторон                       : 16:9
Режим частоты кадров                     : Переменный
Частота кадров                           : 25,000 кадров/сек
Цветовое пространство                    : YUV
Субдискретизация насыщенности            : 4:2:0
Битовая глубина                          : 8 бит
Тип развёртки                            : Прогрессивная
Бит/(Пиксели*Кадры)                      : 0.080
Размер потока                            : 54,6 Мбайт (93%)

Аудио
Идентификатор                            : 1
Формат                                   : MPEG Audio
Версия формата                           : Version 1
Профиль формата                          : Layer 3
Режим                                    : Joint stereo
Расширение режима                        : MS Stereo
Идентификатор кодека                     : 55
Идентификатор кодека/Подсказка           : MP3
Продолжительность                        : 4 м. 7 с.
Вид битрейта                             : Постоянный
Битрейт                                  : 128 Кбит/сек
Каналы                                   : 2 канала
Частота                                  : 44,1 КГц
Метод сжатия                             : С потерями
Размер потока                            : 3,78 Мбайт (6%)
Выравнивание                             : Соединение по промежуткам
Продолжительность промежутка             : 26  мс. (0,65 видеокадр)
Время предзагрузки промежутка            : 522  мс.
Библиотека кодирования                   : LAME3.98.4

Общее
Полное имя                               : Z:\home\user\Видео\Нюша - Это Новый Год.avi
Формат                                   : AVI
Формат/Информация                        : Audio Video Interleave
Размер файла                             : 46,4 Мбайт
Продолжительность                        : 3 м. 35 с.
Общий поток                              : 1806 Кбит/сек
Программа кодирования                    : MEncoder SVN-r33883(20110719-gcc4.5.2)
Библиотека кодирования                   : MPlayer

Видео
Идентификатор                            : 0
Формат                                   : AVC
Формат/Информация                        : Advanced Video Codec
Профиль формата                          :
Параметр CABAC формата                   : Да
Параметр ReFrames формата                : 1 кадр
Идентификатор кодека                     : H264
Продолжительность                        : 3 м. 35 с.
Битрейт                                  : 1665 Кбит/сек
Ширина                                   : 1280 пикселей
Высота                                   : 542 пикселя
Соотношение сторон                       : 2,35:1
Режим частоты кадров                     : Переменный
Частота кадров                           : 25,000 кадров/сек
Цветовое пространство                    : YUV
Субдискретизация насыщенности            : 4:2:0
Битовая глубина                          : 8 бит
Тип развёртки                            : Прогрессивная
Бит/(Пиксели*Кадры)                      : 0.096
Размер потока                            : 42,8 Мбайт (92%)

Аудио
Идентификатор                            : 1
Формат                                   : MPEG Audio
Версия формата                           : Version 1
Профиль формата                          : Layer 3
Режим                                    : Joint stereo
Расширение режима                        : MS Stereo
Идентификатор кодека                     : 55
Идентификатор кодека/Подсказка           : MP3
Продолжительность                        : 3 м. 35 с.
Вид битрейта                             : Постоянный
Битрейт                                  : 128 Кбит/сек
Каналы                                   : 2 канала
Частота                                  : 44,1 КГц
Метод сжатия                             : С потерями
Размер потока                            : 3,29 Мбайт (7%)
Выравнивание                             : Соединение по промежуткам
Продолжительность промежутка             : 26  мс. (0,65 видеокадр)
Время предзагрузки промежутка            : 522  мс.
Библиотека кодирования                   : LAME3.98.4

Общее
Полное имя                               : Z:\home\user\Видео\Нюша - Где ты, там я.avi
Формат                                   : AVI
Формат/Информация                        : Audio Video Interleave
Размер файла                             : 83,7 Мбайт
Продолжительность                        : 4 м. 10 с.
Общий поток                              : 2808 Кбит/сек
Программа кодирования                    : MEncoder SVN-r33883(20110719-gcc4.5.2)
Библиотека кодирования                   : MPlayer

Видео
Идентификатор                            : 0
Формат                                   : AVC
Формат/Информация                        : Advanced Video Codec
Профиль формата                          :
Параметр CABAC формата                   : Да
Параметр ReFrames формата                : 1 кадр
Идентификатор кодека                     : H264
Продолжительность                        : 4 м. 10 с.
Битрейт                                  : 2667 Кбит/сек
Ширина                                   : 1280 пикселей
Высота                                   : 720 пикселей
Соотношение сторон                       : 16:9
Режим частоты кадров                     : Переменный
Частота кадров                           : 25,000 кадров/сек
Цветовое пространство                    : YUV
Субдискретизация насыщенности            : 4:2:0
Битовая глубина                          : 8 бит
Тип развёртки                            : Прогрессивная
Бит/(Пиксели*Кадры)                      : 0.116
Размер потока                            : 79,5 Мбайт (95%)

Аудио
Идентификатор                            : 1
Формат                                   : MPEG Audio
Версия формата                           : Version 1
Профиль формата                          : Layer 3
Режим                                    : Joint stereo
Расширение режима                        : MS Stereo
Идентификатор кодека                     : 55
Идентификатор кодека/Подсказка           : MP3
Продолжительность                        : 4 м. 10 с.
Вид битрейта                             : Постоянный
Битрейт                                  : 128 Кбит/сек
Каналы                                   : 2 канала
Частота                                  : 44,1 КГц
Метод сжатия                             : С потерями
Размер потока                            : 3,82 Мбайт (5%)
Выравнивание                             : Соединение по промежуткам
Продолжительность промежутка             : 26  мс. (0,65 видеокадр)
Время предзагрузки промежутка            : 522  мс.
Библиотека кодирования                   : LAME3.98.4

Общее
Полное имя                               : Z:\home\user\Видео\Нюша - Выше.avi
Формат                                   : AVI
Формат/Информация                        : Audio Video Interleave
Размер файла                             : 64,9 Мбайт
Продолжительность                        : 3 м. 58 с.
Общий поток                              : 2278 Кбит/сек
Программа кодирования                    : MEncoder SVN-r33883(20110719-gcc4.5.2)
Библиотека кодирования                   : MPlayer

Видео
Идентификатор                            : 0
Формат                                   : AVC
Формат/Информация                        : Advanced Video Codec
Профиль формата                          :
Параметр CABAC формата                   : Да
Параметр ReFrames формата                : 1 кадр
Идентификатор кодека                     : H264
Продолжительность                        : 3 м. 58 с.
Битрейт                                  : 2137 Кбит/сек
Ширина                                   : 1280 пикселей
Высота                                   : 720 пикселей
Соотношение сторон                       : 16:9
Режим частоты кадров                     : Переменный
Частота кадров                           : 25,000 кадров/сек
Цветовое пространство                    : YUV
Субдискретизация насыщенности            : 4:2:0
Битовая глубина                          : 8 бит
Тип развёртки                            : Прогрессивная
Бит/(Пиксели*Кадры)                      : 0.093
Размер потока                            : 60,9 Мбайт (94%)

Аудио
Идентификатор                            : 1
Формат                                   : MPEG Audio
Версия формата                           : Version 1
Профиль формата                          : Layer 3
Режим                                    : Joint stereo
Расширение режима                        : MS Stereo
Идентификатор кодека                     : 55
Идентификатор кодека/Подсказка           : MP3
Продолжительность                        : 3 м. 58 с.
Вид битрейта                             : Постоянный
Битрейт                                  : 128 Кбит/сек
Каналы                                   : 2 канала
Частота                                  : 44,1 КГц
Метод сжатия                             : С потерями
Размер потока                            : 3,65 Мбайт (6%)
Выравнивание                             : Соединение по промежуткам
Продолжительность промежутка             : 26  мс. (0,65 видеокадр)
Время предзагрузки промежутка            : 522  мс.
Библиотека кодирования                   : LAME3.98.4

Общее
Полное имя                               : Z:\home\user\Видео\Нюша - Только.avi
Формат                                   : AVI
Формат/Информация                        : Audio Video Interleave
Размер файла                             : 45,8 Мбайт
Продолжительность                        : 3 м. 59 с.
Общий поток                              : 1602 Кбит/сек
Программа кодирования                    : MEncoder SVN-r33883(20110719-gcc4.5.2)
Библиотека кодирования                   : MPlayer

Видео
Идентификатор                            : 0
Формат                                   : AVC
Формат/Информация                        : Advanced Video Codec
Профиль формата                          :
Параметр CABAC формата                   : Да
Параметр ReFrames формата                : 1 кадр
Идентификатор кодека                     : H264
Продолжительность                        : 3 м. 59 с.
Битрейт                                  : 1462 Кбит/сек
Ширина                                   : 1280 пикселей
Высота                                   : 720 пикселей
Соотношение сторон                       : 16:9
Режим частоты кадров                     : Переменный
Частота кадров                           : 25,000 кадров/сек
Цветовое пространство                    : YUV
Субдискретизация насыщенности            : 4:2:0
Битовая глубина                          : 8 бит
Тип развёртки                            : Прогрессивная
Бит/(Пиксели*Кадры)                      : 0.063
Размер потока                            : 41,8 Мбайт (91%)

Аудио
Идентификатор                            : 1
Формат                                   : MPEG Audio
Версия формата                           : Version 1
Профиль формата                          : Layer 3
Режим                                    : Joint stereo
Идентификатор кодека                     : 55
Идентификатор кодека/Подсказка           : MP3
Продолжительность                        : 3 м. 59 с.
Вид битрейта                             : Постоянный
Битрейт                                  : 128 Кбит/сек
Каналы                                   : 2 канала
Частота                                  : 44,1 КГц
Метод сжатия                             : С потерями
Размер потока                            : 3,66 Мбайт (8%)
Выравнивание                             : Соединение по промежуткам
Продолжительность промежутка             : 26  мс. (0,65 видеокадр)
Время предзагрузки промежутка            : 522  мс.
Библиотека кодирования                   : LAME3.98.4

Общее
Полное имя                               : Z:\home\user\Видео\Нюша - Цунами.avi
Формат                                   : AVI
Формат/Информация                        : Audio Video Interleave
Размер файла                             : 66,4 Мбайт
Продолжительность                        : 4 м. 25 с.
Общий поток                              : 2099 Кбит/сек
Программа кодирования                    : MEncoder SVN-r33883(20110719-gcc4.5.2)
Библиотека кодирования                   : MPlayer

Видео
Идентификатор                            : 0
Формат                                   : AVC
Формат/Информация                        : Advanced Video Codec
Профиль формата                          :
Параметр CABAC формата                   : Да
Параметр ReFrames формата                : 1 кадр
Идентификатор кодека                     : H264
Продолжительность                        : 4 м. 25 с.
Битрейт                                  : 1959 Кбит/сек
Ширина                                   : 1280 пикселей
Высота                                   : 676 пикселей
Соотношение сторон                       : 1,893
Режим частоты кадров                     : Переменный
Частота кадров                           : 25,000 кадров/сек
Цветовое пространство                    : YUV
Субдискретизация насыщенности            : 4:2:0
Битовая глубина                          : 8 бит
Тип развёртки                            : Прогрессивная
Бит/(Пиксели*Кадры)                      : 0.091
Размер потока                            : 61,9 Мбайт (93%)

Аудио
Идентификатор                            : 1
Формат                                   : MPEG Audio
Версия формата                           : Version 1
Профиль формата                          : Layer 3
Режим                                    : Joint stereo
Расширение режима                        : MS Stereo
Идентификатор кодека                     : 55
Идентификатор кодека/Подсказка           : MP3
Продолжительность                        : 4 м. 25 с.
Вид битрейта                             : Постоянный
Битрейт                                  : 128 Кбит/сек
Каналы                                   : 2 канала
Частота                                  : 44,1 КГц
Метод сжатия                             : С потерями
Размер потока                            : 4,05 Мбайт (6%)
Выравнивание                             : Соединение по промежуткам
Продолжительность промежутка             : 26  мс. (0,65 видеокадр)
Время предзагрузки промежутка            : 522  мс.
Библиотека кодирования                   : LAME3.98.4

Общее
Полное имя                               : Z:\home\user\Видео\Нюша - Наедине.avi
Формат                                   : AVI
Формат/Информация                        : Audio Video Interleave
Размер файла                             : 65,5 Мбайт
Продолжительность                        : 3 м. 55 с.
Общий поток                              : 2338 Кбит/сек
Программа кодирования                    : MEncoder SVN-r33883(20110719-gcc4.5.2)
Библиотека кодирования                   : MPlayer

Видео
Идентификатор                            : 0
Формат                                   : AVC
Формат/Информация                        : Advanced Video Codec
Профиль формата                          :
Параметр CABAC формата                   : Да
Параметр ReFrames формата                : 1 кадр
Идентификатор кодека                     : H264
Продолжительность                        : 3 м. 55 с.
Битрейт                                  : 2198 Кбит/сек
Ширина                                   : 1280 пикселей
Высота                                   : 720 пикселей
Соотношение сторон                       : 16:9
Режим частоты кадров                     : Переменный
Частота кадров                           : 25,000 кадров/сек
Цветовое пространство                    : YUV
Субдискретизация насыщенности            : 4:2:0
Битовая глубина                          : 8 бит
Тип развёртки                            : Прогрессивная
Бит/(Пиксели*Кадры)                      : 0.095
Размер потока                            : 61,6 Мбайт (94%)

Аудио
Идентификатор                            : 1
Формат                                   : MPEG Audio
Версия формата                           : Version 1
Профиль формата                          : Layer 3
Режим                                    : Joint stereo
Расширение режима                        : MS Stereo
Идентификатор кодека                     : 55
Идентификатор кодека/Подсказка           : MP3
Продолжительность                        : 3 м. 55 с.
Вид битрейта                             : Постоянный
Битрейт                                  : 128 Кбит/сек
Каналы                                   : 2 канала
Частота                                  : 44,1 КГц
Метод сжатия                             : С потерями
Размер потока                            : 3,59 Мбайт (5%)
Выравнивание                             : Соединение по промежуткам
Продолжительность промежутка             : 26  мс. (0,65 видеокадр)
Время предзагрузки промежутка            : 522  мс.
Библиотека кодирования                   : LAME3.98.4

Общее
Полное имя                               : Z:\home\user\Видео\Нюша - Леди N.avi
Формат                                   : AVI
Формат/Информация                        : Audio Video Interleave
Размер файла                             : 55,2 Мбайт
Продолжительность                        : 3 м. 9 с.
Общий поток                              : 2448 Кбит/сек
Программа кодирования                    : MEncoder SVN-r33883(20110719-gcc4.5.2)
Библиотека кодирования                   : MPlayer

Видео
Идентификатор                            : 0
Формат                                   : AVC
Формат/Информация                        : Advanced Video Codec
Профиль формата                          :
Параметр CABAC формата                   : Да
Параметр ReFrames формата                : 1 кадр
Идентификатор кодека                     : H264
Продолжительность                        : 3 м. 9 с.
Битрейт                                  : 2308 Кбит/сек
Ширина                                   : 1280 пикселей
Высота                                   : 720 пикселей
Соотношение сторон                       : 16:9
Режим частоты кадров                     : Переменный
Частота кадров                           : 25,000 кадров/сек
Цветовое пространство                    : YUV
Субдискретизация насыщенности            : 4:2:0
Битовая глубина                          : 8 бит
Тип развёртки                            : Прогрессивная
Бит/(Пиксели*Кадры)                      : 0.100
Размер потока                            : 52,0 Мбайт (94%)

Аудио
Идентификатор                            : 1
Формат                                   : MPEG Audio
Версия формата                           : Version 1
Профиль формата                          : Layer 3
Режим                                    : Joint stereo
Идентификатор кодека                     : 55
Идентификатор кодека/Подсказка           : MP3
Продолжительность                        : 3 м. 9 с.
Вид битрейта                             : Постоянный
Битрейт                                  : 128 Кбит/сек
Каналы                                   : 2 канала
Частота                                  : 44,1 КГц
Метод сжатия                             : С потерями
Размер потока                            : 2,88 Мбайт (5%)
Выравнивание                             : Соединение по промежуткам
Продолжительность промежутка             : 26  мс. (0,65 видеокадр)
Время предзагрузки промежутка            : 522  мс.

Общее
Полное имя                               : Z:\home\user\Видео\Нюша - Целуй.avi
Формат                                   : AVI
Формат/Информация                        : Audio Video Interleave
Размер файла                             : 48,7 Мбайт
Продолжительность                        : 3 м. 33 с.
Общий поток                              : 1912 Кбит/сек
Программа кодирования                    : MEncoder SVN-r33883(20110719-gcc4.5.2)
Библиотека кодирования                   : MPlayer

Видео
Идентификатор                            : 0
Формат                                   : AVC
Формат/Информация                        : Advanced Video Codec
Профиль формата                          :
Параметр CABAC формата                   : Да
Параметр ReFrames формата                : 3 кадра
Идентификатор кодека                     : H264
Продолжительность                        : 3 м. 33 с.
Битрейт                                  : 1770 Кбит/сек
Ширина                                   : 1280 пикселей
Высота                                   : 720 пикселей
Соотношение сторон                       : 16:9
Режим частоты кадров                     : Переменный
Частота кадров                           : 30,000 кадров/сек
Цветовое пространство                    : YUV
Субдискретизация насыщенности            : 4:2:0
Битовая глубина                          : 8 бит
Тип развёртки                            : Прогрессивная
Бит/(Пиксели*Кадры)                      : 0.064
Размер потока                            : 45,1 Мбайт (93%)
Основные цвета                           : BT.709
Характеристики трансфера                 : BT.709
Коэффициенты матрицы                     : BT.709

Аудио
Идентификатор                            : 1
Формат                                   : MPEG Audio
Версия формата                           : Version 1
Профиль формата                          : Layer 3
Режим                                    : Joint stereo
Расширение режима                        : MS Stereo
Идентификатор кодека                     : 55
Идентификатор кодека/Подсказка           : MP3
Продолжительность                        : 3 м. 33 с.
Вид битрейта                             : Постоянный
Битрейт                                  : 128 Кбит/сек
Каналы                                   : 2 канала
Частота                                  : 44,1 КГц
Метод сжатия                             : С потерями
Размер потока                            : 3,26 Мбайт (7%)
Выравнивание                             : Соединение по промежуткам
Продолжительность промежутка             : 26  мс. (0,78 видеокадр)
Время предзагрузки промежутка            : 522  мс.
Библиотека кодирования                   : LAME3.98.4

Общее
Полное имя                               : Z:\home\user\Видео\Нюша - Больно.avi
Формат                                   : AVI
Формат/Информация                        : Audio Video Interleave
Размер файла                             : 57,5 Мбайт
Продолжительность                        : 3 м. 48 с.
Общий поток                              : 2113 Кбит/сек
Программа кодирования                    : MEncoder SVN-r33883(20110719-gcc4.5.2)
Библиотека кодирования                   : MPlayer

Видео
Идентификатор                            : 0
Формат                                   : AVC
Формат/Информация                        : Advanced Video Codec
Профиль формата                          :
Параметр CABAC формата                   : Да
Параметр ReFrames формата                : 1 кадр
Идентификатор кодека                     : H264
Продолжительность                        : 3 м. 48 с.
Битрейт                                  : 1973 Кбит/сек
Ширина                                   : 1280 пикселей
Высота                                   : 720 пикселей
Соотношение сторон                       : 16:9
Режим частоты кадров                     : Переменный
Частота кадров                           : 25,000 кадров/сек
Цветовое пространство                    : YUV
Субдискретизация насыщенности            : 4:2:0
Битовая глубина                          : 8 бит
Тип развёртки                            : Прогрессивная
Бит/(Пиксели*Кадры)                      : 0.086
Размер потока                            : 53,6 Мбайт (93%)

Аудио
Идентификатор                            : 1
Формат                                   : MPEG Audio
Версия формата                           : Version 1
Профиль формата                          : Layer 3
Режим                                    : Joint stereo
Идентификатор кодека                     : 55
Идентификатор кодека/Подсказка           : MP3
Продолжительность                        : 3 м. 48 с.
Вид битрейта                             : Постоянный
Битрейт                                  : 128 Кбит/сек
Каналы                                   : 2 канала
Частота                                  : 44,1 КГц
Метод сжатия                             : С потерями
Размер потока                            : 3,48 Мбайт (6%)
Выравнивание                             : Соединение по промежуткам
Продолжительность промежутка             : 26  мс. (0,65 видеокадр)
Время предзагрузки промежутка            : 522  мс.
Библиотека кодирования                   : LAME3.98.4

Скриншоты:



Время раздачи: 24/7
 
Не забывайте говорить Спасибо. Не уходите с раздачи!   
Торрент: Зарегистрирован [10 май 2016, 15:33] Скачать торрент
Скачать торрент
[ Размер 15.4 КБ / Просмотров 34 ]
Статус:
Проверен
 
.torrent скачан: 0 раз
Хэш: 982e19272ed32042c1bda6328c45916228a6e5c6
Размер: 700.65 МБ (734 683 326 байт)
Стать Автором раздачи
 
 
Раздал: 100 ГБ
Скачал: 0 байт
Ратио: Seed.
Сообщения: 111724
Зарегистрирован: 09 апр 2015, 22:31


  • Похожие торренты
    Ответы
    Просмотры
    Последнее сообщение

Вернуться в Музыкальные клипы (транзит)

Ресурс не предоставляет электронные версии произведений, а занимается лишь коллекционированием и каталогизацией ссылок, присылаемых и публикуемых на форуме нашими читателями. Если вы являетесь правообладателем какого-либо представленного материала и не желаете чтобы ссылка на него находилась в нашем каталоге, свяжитесь с нами и мы незамедлительно удалим её. Файлы для обмена на трекере предоставлены пользователями сайта, и администрация не несёт ответственности за их содержание. Просьба не заливать файлы, защищенные авторскими правами, а также файлы нелегального содержания!
cron