Andy Stott - Discography 21 Releases (2005-2016) [FLAC|Lossless|tracks+.cue, tracks ] <Techno, Bass, Grime, Ambient, Downtempo, Experimental, House, Abstract>

 
 Статистика раздачи 
Размер: 2.88 ГБ   |  Зарегистрирован: 08 май 2016, 17:09   |   .torrent скачан: 2 раз
Сидеров: 1  [ 0 байт/сек ]     Личеров: 0  [ 0 байт/сек ]  
  

Andy Stott - Discography 21 Releases (2005-2016) [FLAC|Lossless|tracks+.cue, tracks ] <Techno, Bass, Grime, Ambient, Downtempo, Experimental, House, Abstract>

Сообщение explosiveone » 08 май 2016, 17:09

Andy Stott
Discography

Энди Стотту понадобилось немало времени, чтобы по-настоящему заявить о себе. Большую часть прошлого десятилетия этот манчестерский продюсер выпускал крепкие добротные треки под своим именем или под псевдонимом Andrea. Несмотря на то, что в конечном счете он всякий раз возвращался к даб-техно, Энди успел поэкспериментировать с большим количеством стилей от джука до хауса и дабстепа, и некоторые из его работ были весьма хороши. Однако окончательно обрести собственный уникальный голос Стотту долго не удавалось. Все изменилось в 2011 году после выхода двух мини-альбомов, Passed Me By и We Stay Together. В них Стотт ушел от быстрых танцевальных ритмов, и это замедление позволило ему глубже погрузиться в собственную музыку и открыть в ней новый мир со своей характерной атмосферой и текстурой. Альбомы Passed Me By и We Stay Together отличаются утяжеленным звуком, по-новому раскрывающим выразительную силу басовых частот.

Жанр
: Techno, Bass, Grime, Ambient, Downtempo, Experimental, House, Abstract • Страна: UK • Год: 2005-2016 • Тип издания: CD, Web
Аудиокодек: FLAC (*.flac) • Тип рипа: tracks+.cue, tracks • Продолжительность: 09:45:03 • Источник: What
Треклист:
Год выпуска: 2006
Продолжительность: 00:42:51
Треклист:

01. Florence (04:25)
02. Edyocat (04:59)
03. Choke (05:19)
04. Hi-Rise (03:55)
05. Merciless (02:51)
06. Come To Me (04:07)
07. Hertzog (06:43)
08. Boutique (04:49)
09. Blocked (03:16)
10. Peace Of Mind (02:27)
Код: Выделить всё
Exact Audio Copy V0.99 prebeta 5 from 4. May 2009

EAC extraction logfile from 26. October 2013, 1:47

Andy Stott / Merciless

Used drive  : ATAPI   DVD A  DH16A6L   Adapter: 1  ID: 0

Read mode               : Secure
Utilize accurate stream : Yes
Defeat audio cache      : Yes
Make use of C2 pointers : No

Read offset correction                      : 6
Overread into Lead-In and Lead-Out          : No
Fill up missing offset samples with silence : Yes
Delete leading and trailing silent blocks   : No
Null samples used in CRC calculations       : Yes
Used interface                              : Native Win32 interface for Win NT & 2000
Gap handling                                : Appended to previous track

Used output format              : User Defined Encoder
Selected bitrate                : 320 kBit/s
Quality                         : High
Add ID3 tag                     : No
Command line compressor         : C:\Program Files\Exact Audio Copy\Encoders\flac.exe
Additional command line options : -8 -T "artist=%A" -T "title=%T" -T "album=%G" -T "date=%Y" -T "tracknumber=%N" -T "genre=%M" %s

TOC of the extracted CD

     Track |   Start  |  Length  | Start sector | End sector
    ---------------------------------------------------------
        1  |  0:00.00 |  4:25.15 |         0    |    19889
        2  |  4:25.15 |  4:58.44 |     19890    |    42283
        3  |  9:23.59 |  5:19.20 |     42284    |    66228
        4  | 14:43.04 |  3:55.00 |     66229    |    83853
        5  | 18:38.04 |  2:51.08 |     83854    |    96686
        6  | 21:29.12 |  4:07.02 |     96687    |   115213
        7  | 25:36.14 |  6:43.22 |    115214    |   145460
        8  | 32:19.36 |  4:48.68 |    145461    |   167128
        9  | 37:08.29 |  3:15.66 |    167129    |   181819
       10  | 40:24.20 |  2:27.08 |    181820    |   192852

Track  1

     Filename C:\Program Files\Exact Audio Copy\Rips\Andy Stott - Merciless\01 - Andy Stott - Florence.wav

     Pre-gap length  0:00:02.00

     Peak level 99.0 %
     Track quality 100.0 %
     Test CRC 01E771BE
     Copy CRC 01E771BE
     Cannot be verified as accurate (confidence 8)  [4DB0D9B9], AccurateRip returned [1483FC9A]
     Copy OK

Track  2

     Filename C:\Program Files\Exact Audio Copy\Rips\Andy Stott - Merciless\02 - Andy Stott - Edyocat.wav

     Peak level 100.0 %
     Track quality 100.0 %
     Test CRC 83BA2107
     Copy CRC 83BA2107
     Cannot be verified as accurate (confidence 8)  [00C7FA89], AccurateRip returned [91FD14D7]
     Copy OK

Track  3

     Filename C:\Program Files\Exact Audio Copy\Rips\Andy Stott - Merciless\03 - Andy Stott - Choke.wav

     Peak level 100.0 %
     Track quality 100.0 %
     Test CRC 87E7072C
     Copy CRC 87E7072C
     Cannot be verified as accurate (confidence 8)  [87063097], AccurateRip returned [EB862238]
     Copy OK

Track  4

     Filename C:\Program Files\Exact Audio Copy\Rips\Andy Stott - Merciless\04 - Andy Stott - Hi-Rise.wav

     Peak level 99.6 %
     Track quality 100.0 %
     Test CRC CF8D3477
     Copy CRC CF8D3477
     Cannot be verified as accurate (confidence 8)  [1873F712], AccurateRip returned [B1FFE385]
     Copy OK

Track  5

     Filename C:\Program Files\Exact Audio Copy\Rips\Andy Stott - Merciless\05 - Andy Stott - Merciless.wav

     Peak level 54.0 %
     Track quality 100.0 %
     Test CRC C515FA2D
     Copy CRC C515FA2D
     Cannot be verified as accurate (confidence 8)  [C94F5457], AccurateRip returned [3CB9BC02]
     Copy OK

Track  6

     Filename C:\Program Files\Exact Audio Copy\Rips\Andy Stott - Merciless\06 - Andy Stott - Come To Me.wav

     Peak level 99.5 %
     Track quality 99.9 %
     Test CRC 4A2980B3
     Copy CRC 4A2980B3
     Cannot be verified as accurate (confidence 8)  [2723BA17], AccurateRip returned [1FA12F5B]
     Copy OK

Track  7

     Filename C:\Program Files\Exact Audio Copy\Rips\Andy Stott - Merciless\07 - Andy Stott - Hertzog.wav

     Peak level 99.9 %
     Track quality 100.0 %
     Test CRC 5E4B6B9A
     Copy CRC 5E4B6B9A
     Cannot be verified as accurate (confidence 8)  [03F7AC96], AccurateRip returned [ECCBE28E]
     Copy OK

Track  8

     Filename C:\Program Files\Exact Audio Copy\Rips\Andy Stott - Merciless\08 - Andy Stott - Boutique.wav

     Peak level 99.4 %
     Track quality 99.9 %
     Test CRC 8E1687DB
     Copy CRC 8E1687DB
     Cannot be verified as accurate (confidence 8)  [7A948883], AccurateRip returned [B5F00F20]
     Copy OK

Track  9

     Filename C:\Program Files\Exact Audio Copy\Rips\Andy Stott - Merciless\09 - Andy Stott - Blocked.wav

     Peak level 100.0 %
     Track quality 99.9 %
     Test CRC 12943C42
     Copy CRC 12943C42
     Cannot be verified as accurate (confidence 8)  [779A9D4F], AccurateRip returned [3534BDE9]
     Copy OK

Track 10

     Filename C:\Program Files\Exact Audio Copy\Rips\Andy Stott - Merciless\10 - Andy Stott - Peace Of Mind.wav

     Peak level 94.7 %
     Track quality 99.9 %
     Test CRC A452008F
     Copy CRC A452008F
     Cannot be verified as accurate (confidence 8)  [8982D0D2], AccurateRip returned [2E1C2DE0]
     Copy OK

No tracks could be verified as accurate
You may have a different pressing from the one(s) in the database

No errors occurred

End of status report

Код: Выделить всё
REM DATE 2006
REM DISCID 7C0A0B0A
REM COMMENT "ExactAudioCopy v0.99pb5"
PERFORMER "Andy Stott"
TITLE "Merciless"
FILE "01 - Andy Stott - Florence.wav" WAVE
  TRACK 01 AUDIO
    TITLE "Florence"
    PERFORMER "Andy Stott"
    INDEX 01 00:00:00
FILE "02 - Andy Stott - Edyocat.wav" WAVE
  TRACK 02 AUDIO
    TITLE "Edyocat"
    PERFORMER "Andy Stott"
    INDEX 01 00:00:00
FILE "03 - Andy Stott - Choke.wav" WAVE
  TRACK 03 AUDIO
    TITLE "Choke"
    PERFORMER "Andy Stott"
    INDEX 01 00:00:00
FILE "04 - Andy Stott - Hi-Rise.wav" WAVE
  TRACK 04 AUDIO
    TITLE "Hi-Rise"
    PERFORMER "Andy Stott"
    INDEX 01 00:00:00
FILE "05 - Andy Stott - Merciless.wav" WAVE
  TRACK 05 AUDIO
    TITLE "Merciless"
    PERFORMER "Andy Stott"
    INDEX 01 00:00:00
FILE "06 - Andy Stott - Come To Me.wav" WAVE
  TRACK 06 AUDIO
    TITLE "Come To Me"
    PERFORMER "Andy Stott"
    INDEX 01 00:00:00
FILE "07 - Andy Stott - Hertzog.wav" WAVE
  TRACK 07 AUDIO
    TITLE "Hertzog"
    PERFORMER "Andy Stott"
    INDEX 01 00:00:00
FILE "08 - Andy Stott - Boutique.wav" WAVE
  TRACK 08 AUDIO
    TITLE "Boutique"
    PERFORMER "Andy Stott"
    INDEX 01 00:00:00
FILE "09 - Andy Stott - Blocked.wav" WAVE
  TRACK 09 AUDIO
    TITLE "Blocked"
    PERFORMER "Andy Stott"
    INDEX 01 00:00:00
FILE "10 - Andy Stott - Peace Of Mind.wav" WAVE
  TRACK 10 AUDIO
    TITLE "Peace Of Mind"
    PERFORMER "Andy Stott"
    INDEX 01 00:00:00

#77Год выпуска: 2012
Продолжительность: 00:48:49
Треклист:

01. Numb (06:30)
02. Lost And Found (06:06)
03. Sleepless (05:50)
04. Hatch The Plan (08:40)
05. Expecting (07:55)
06. Luxury Problems (05:04)
07. Up The Box (05:01)
08. Leaving (03:43)
Код: Выделить всё
-----------------------

DON'T MODIFY THIS FILE

-----------------------

PERFORMER: auCDtect Task Manager, ver. 1.5.1RC6 build 1.5.1.7
Copyright (c) 2008-2010 y-soft. All rights reserved
[url=http://y-soft.org]http://y-soft.org[/url]

ANALYZER: auCDtect: CD records authenticity detector, version 0.8.2
Copyright (c) 2004 Oleg Berngardt. All rights reserved.
Copyright (c) 2004 Alexander Djourik. All rights reserved.

FILE: 08. Leaving.flac
  Size: 23743939 Hash: A7A6186AD2531733AC309E973302F45C Accuracy: -m0
  Conclusion: CDDA 100%
  Signature: 0B1F05353F930CD1119F2EECD7367E6264449D08
FILE: 07. Up The Box.flac
  Size: 30288781 Hash: 5E02151F47DCEAE2FA62186367B68B92 Accuracy: -m0
  Conclusion: CDDA 100%
  Signature: 8E2592059351CDBBB168BCEB685CD59A06509925
FILE: 06. Luxury Problems.flac
  Size: 30143477 Hash: 471CD0623C119FCAEC03B32AC8BC59C3 Accuracy: -m0
  Conclusion: CDDA 99%
  Signature: DD32AF2C4E3C195DAAD38F95DCF779E56E950034
FILE: 05. Expecting.flac
  Size: 44451270 Hash: AD92665464863E44B2CCB45F44112583 Accuracy: -m0
  Conclusion: CDDA 100%
  Signature: 1648510A6D61878370051AF510116CBE57410210
FILE: 04. Hatch The Plan.flac
  Size: 53078014 Hash: AD0E03D02B470EBB29AE74688F507E3A Accuracy: -m0
  Conclusion: CDDA 100%
  Signature: 9A80AA65CDBF24CEE5EE46B5275ADE5F0ADA1646
FILE: 03. Sleepless.flac
  Size: 36262335 Hash: AE7B94ED686B0BF24DF4D7B5B0260F42 Accuracy: -m0
  Conclusion: CDDA 100%
  Signature: 19E6A96443A497BFCA8958C1E8FA39AE9EDF5CCA
FILE: 02. Lost And Found.flac
  Size: 32942565 Hash: 17441DDC83649772A0EFB4951AC91F43 Accuracy: -m0
  Conclusion: CDDA 100%
  Signature: ED5440C30A2ECD2E2442F5439268AE24C65D89D0
FILE: 01. Numb.flac
  Size: 46951186 Hash: 74D231001AE76BF0B54B542E4A5EA0B1 Accuracy: -m0
  Conclusion: CDDA 100%
  Signature: B5E7D0F4EBA7B6946121E25102E5E7DA64731EF3

 
#77Год выпуска: 2014
Продолжительность: 00:53:51
Треклист:

01. Time Away (06:24)
02. Violence (06:38)
03. On Oath (08:09)
04. Science and Industry (05:32)
05. No Surrender (04:59)
06. How It Was (06:09)
07. Damage (04:35)
08. Faith In Strangers (06:29)
09. Missing (04:56)
Код: Выделить всё
-----------------------

DON'T MODIFY THIS FILE

-----------------------

PERFORMER: auCDtect Task Manager, ver. 1.5.1RC6 build 1.5.1.7
Copyright (c) 2008-2010 y-soft. All rights reserved
[url=http://y-soft.org]http://y-soft.org[/url]

ANALYZER: auCDtect: CD records authenticity detector, version 0.8.2
Copyright (c) 2004 Oleg Berngardt. All rights reserved.
Copyright (c) 2004 Alexander Djourik. All rights reserved.

FILE: 09. Missing.flac
  Size: 22145717 Hash: 5B4A64F49D6D6F3777B6045B1C2F774A Accuracy: -m0
  Conclusion: CDDA 86%
  Signature: EE01031D5F5057CE18A45B589A82698101DEC865
FILE: 08. Faith In Strangers.flac
  Size: 39532191 Hash: 4BE9A9F63A107E8FD09D02ADCF9F2FB4 Accuracy: -m0
  Conclusion: CDDA 100%
  Signature: 4A415CE61BA488161FEE462469604F800BDA7C46
FILE: 07. Damage.flac
  Size: 25951878 Hash: BC96B74EA47ACCAF4D2555C1EFF998CB Accuracy: -m0
  Conclusion: CDDA 99%
  Signature: 7E740391902CE4AA087D80BA07F25CB4B2708AB3
FILE: 06. How It Was.flac
  Size: 32790603 Hash: A4F225324001F775CAFFCED4E0983263 Accuracy: -m0
  Conclusion: CDDA 100%
  Signature: A89DD525BF3D1672239C712209F09186963102FF
FILE: 05. No Surrender.flac
  Size: 32129432 Hash: 74450DEAB9D8DD5F015556E4385F0D56 Accuracy: -m0
  Conclusion: CDDA 100%
  Signature: 45284E606AE0AE96412372D1B11944CBAE30D079
FILE: 04. Science and Industry.flac
  Size: 39017850 Hash: 9CE06AA66BA69680EE88289D3FBB88E7 Accuracy: -m0
  Conclusion: CDDA 100%
  Signature: 120CE8017F7A3EE2A99A6DFE445432E02AB901BB
FILE: 03. On Oath.flac
  Size: 54625607 Hash: 5A2AE3E3C1AD835217697044607406D6 Accuracy: -m0
  Conclusion: CDDA 100%
  Signature: 2B6A00D1FD19F958097E35704AE6447CFB9B0FF1
FILE: 02. Violence.flac
  Size: 37449462 Hash: 3732928459AEC60250BA1FDE5B868960 Accuracy: -m0
  Conclusion: CDDA 100%
  Signature: E62FD94254267E261F68160061C4617CDFF8AB77
FILE: 01. Time Away.flac
  Size: 29353313 Hash: 054597DDC6A867B7E204B36B426651E7 Accuracy: -m0
  Conclusion: CDDA 100%
  Signature: 9F1E92B3A680B3174BBBBD7986223BC7CE03C562

 
#77Год выпуска: 2016
Продолжительность: 00:46:16
Треклист:

01. Waiting For You (02:41)
02. Butterflies (04:23)
03. New Romantic (05:39)
04. First Night (05:45)
05. Forgotten (05:47)
06. Selfish (04:34)
07. On My Mind (06:16)
08. Over (05:04)
09. Too Many Voices (06:07)
Код: Выделить всё
-----------------------

DON'T MODIFY THIS FILE

-----------------------

PERFORMER: auCDtect Task Manager, ver. 1.5.1RC6 build 1.5.1.7
Copyright (c) 2008-2010 y-soft. All rights reserved
[url=http://y-soft.org]http://y-soft.org[/url]

ANALYZER: auCDtect: CD records authenticity detector, version 0.8.2
Copyright (c) 2004 Oleg Berngardt. All rights reserved.
Copyright (c) 2004 Alexander Djourik. All rights reserved.

FILE: 09. Too Many Voices.flac
  Size: 38289670 Hash: 3F7913EF2C99AA2D9D644D6E695A9240 Accuracy: -m0
  Conclusion: CDDA 99%
  Signature: 3C6A8D15E7CB0C3025AE636153EEDACD9A6175B0
FILE: 08. Over.flac
  Size: 28538389 Hash: BE723608E831C70EA8B3916EDE97FEC9 Accuracy: -m0
  Conclusion: CDDA 100%
  Signature: 362D70684FCF11781A4A2E4416EB40C6ED6391D8
FILE: 07. On My Mind.flac
  Size: 37874671 Hash: 4567288252805B9F08EF917DE230E608 Accuracy: -m0
  Conclusion: CDDA 100%
  Signature: 1060D5AEA56ACBF292A900DA6DC45EB2A7DB0529
FILE: 06. Selfish.flac
  Size: 28996698 Hash: 02FC5C492EF5D17114F50762ABEC2FAB Accuracy: -m0
  Conclusion: CDDA 100%
  Signature: 0371536095CEAF5959119D7F8B5F8189872E75BC
FILE: 05. Forgotten.flac
  Size: 36709972 Hash: 74F9CC48EF914AE803E95C12C21EE4E6 Accuracy: -m0
  Conclusion: CDDA 100%
  Signature: 4B998E544AE03826AF07B8BF6CF394DA5AF9E593
FILE: 04. First Night.flac
  Size: 32941261 Hash: DAC15A31B2D43BE44C111C5B6C43BF2B Accuracy: -m0
  Conclusion: CDDA 100%
  Signature: 357021C7FE0E693B52BE2E8C812F416FB1F2FEF0
FILE: 03. New Romantic.flac
  Size: 38944006 Hash: 7F449946FC9C00DBBBB976124A5813F8 Accuracy: -m0
  Conclusion: CDDA 99%
  Signature: D349B62B678164D37CC88946B1B75717D106DA08
FILE: 02. Butterflies.flac
  Size: 24658884 Hash: 260012B3E60BB02AD7B011CFCA63D9C6 Accuracy: -m0
  Conclusion: CDDA 100%
  Signature: 62154417B6032D8D884F4085D11ABA4A0A6C703D
FILE: 01. Waiting For You.flac
  Size: 17079844 Hash: 52ABD7C3E9F8C0B991A075C632C1A265 Accuracy: -m0
  Conclusion: CDDA 100%
  Signature: 465F6A34CA137203C82DB045F400F7B68FCDBF1F

 
#77Год выпуска: 2008
Продолжительность: 01:12:48
Треклист:

01. Fear Of Heights (06:20)
02. Bad Landing (06:10)
03. Handle With Care (04:50)
04. Long Drive (05:27)
05. Credit (07:07)
06. Massacre (06:57)
07. See In Me (06:07)
08. Made Your Point (06:04)
09. She’s Gone Wrong (05:31)
10. Fine Metallic Dollar (06:53)
11. Hostile (06:39)
12. Replace (04:43)
Код: Выделить всё
Exact Audio Copy V0.99 prebeta 4 from 23. January 2008

EAC extraction logfile from 27. September 2008, 1:53

Andy Stott / Unknown Exception

Used drive  : ASUS    DRW-1814BLT   Adapter: 2  ID: 1

Read mode               : Secure
Utilize accurate stream : Yes
Defeat audio cache      : Yes
Make use of C2 pointers : No

Read offset correction                      : 6
Overread into Lead-In and Lead-Out          : No
Fill up missing offset samples with silence : Yes
Delete leading and trailing silent blocks   : No
Null samples used in CRC calculations       : Yes
Used interface                              : Native Win32 interface for Win NT & 2000
Gap handling                                : Appended to previous track

Used output format              : User Defined Encoder
Selected bitrate                : 768 kBit/s
Quality                         : High
Add ID3 tag                     : No
Command line compressor         : C:\Program Files\Exact Audio Copy\FLAC\FLAC.EXE
Additional command line options : -V -8 -T "artist=%a" -T "title=%t" -T "album=%g" -T "date=%y" -T "tracknumber=%n" -T "genre=%m" %s

TOC of the extracted CD

     Track |   Start  |  Length  | Start sector | End sector
    ---------------------------------------------------------
        1  |  0:00.00 |  6:19.46 |         0    |    28470
        2  |  6:19.46 |  6:10.09 |     28471    |    56229
        3  | 12:29.55 |  4:49.53 |     56230    |    77957
        4  | 17:19.33 |  5:27.30 |     77958    |   102512
        5  | 22:46.63 |  7:07.33 |    102513    |   134570
        6  | 29:54.21 |  6:56.64 |    134571    |   165834
        7  | 36:51.10 |  6:06.45 |    165835    |   193329
        8  | 42:57.55 |  6:03.39 |    193330    |   220593
        9  | 49:01.19 |  5:31.32 |    220594    |   245450
       10  | 54:32.51 |  6:53.19 |    245451    |   276444
       11  | 61:25.70 |  6:39.16 |    276445    |   306385
       12  | 68:05.11 |  4:42.64 |    306386    |   327599

Track  1

     Filename C:\Users\Stuart\Documents\Andy Stott - Unknown Exception\01 - Fear Of Heights.wav

     Pre-gap length  0:00:02.00

     Peak level 98.5 %
     Track quality 100.0 %
     Test CRC 614181A4
     Copy CRC 614181A4
     Track not present in AccurateRip database
     Copy OK

Track  2

     Filename C:\Users\Stuart\Documents\Andy Stott - Unknown Exception\02 - Bad Landing.wav

     Peak level 100.0 %
     Track quality 100.0 %
     Test CRC 7BF6A310
     Copy CRC 7BF6A310
     Track not present in AccurateRip database
     Copy OK

Track  3

     Filename C:\Users\Stuart\Documents\Andy Stott - Unknown Exception\03 - Handle With Care.wav

     Peak level 98.4 %
     Track quality 100.0 %
     Test CRC 7E5DB9A9
     Copy CRC 7E5DB9A9
     Track not present in AccurateRip database
     Copy OK

Track  4

     Filename C:\Users\Stuart\Documents\Andy Stott - Unknown Exception\04 - Long Drive.wav

     Peak level 99.6 %
     Track quality 99.9 %
     Test CRC 53D1A12E
     Copy CRC 53D1A12E
     Track not present in AccurateRip database
     Copy OK

Track  5

     Filename C:\Users\Stuart\Documents\Andy Stott - Unknown Exception\05 - Credit.wav

     Peak level 100.0 %
     Track quality 100.0 %
     Test CRC 24A299F2
     Copy CRC 24A299F2
     Track not present in AccurateRip database
     Copy OK

Track  6

     Filename C:\Users\Stuart\Documents\Andy Stott - Unknown Exception\06 - Massacre.wav

     Peak level 98.4 %
     Track quality 100.0 %
     Test CRC 69723046
     Copy CRC 69723046
     Track not present in AccurateRip database
     Copy OK

Track  7

     Filename C:\Users\Stuart\Documents\Andy Stott - Unknown Exception\07 - See In Me.wav

     Peak level 100.0 %
     Track quality 99.9 %
     Test CRC FE2CB9AE
     Copy CRC FE2CB9AE
     Track not present in AccurateRip database
     Copy OK

Track  8

     Filename C:\Users\Stuart\Documents\Andy Stott - Unknown Exception\08 - Made Your Point.wav

     Peak level 96.6 %
     Track quality 100.0 %
     Test CRC 64471BC0
     Copy CRC 64471BC0
     Track not present in AccurateRip database
     Copy OK

Track  9

     Filename C:\Users\Stuart\Documents\Andy Stott - Unknown Exception\09 - She's Gone Wrong.wav

     Peak level 97.0 %
     Track quality 100.0 %
     Test CRC 9EF1C329
     Copy CRC 9EF1C329
     Track not present in AccurateRip database
     Copy OK

Track 10

     Filename C:\Users\Stuart\Documents\Andy Stott - Unknown Exception\10 - Fine Metallic Dollar.wav

     Peak level 98.5 %
     Track quality 100.0 %
     Test CRC 9B2F4E96
     Copy CRC 9B2F4E96
     Track not present in AccurateRip database
     Copy OK

Track 11

     Filename C:\Users\Stuart\Documents\Andy Stott - Unknown Exception\11 - Hostile.wav

     Peak level 98.5 %
     Track quality 100.0 %
     Test CRC A1B96297
     Copy CRC A1B96297
     Track not present in AccurateRip database
     Copy OK

Track 12

     Filename C:\Users\Stuart\Documents\Andy Stott - Unknown Exception\12 - Replace.wav

     Peak level 89.3 %
     Track quality 100.0 %
     Test CRC D0B0F880
     Copy CRC D0B0F880
     Track not present in AccurateRip database
     Copy OK

None of the tracks are present in the AccurateRip database

No errors occurred

End of status report

 
Код: Выделить всё
REM GENRE Electronic
REM DATE 2008
REM DISCID B611100C
REM COMMENT "ExactAudioCopy v0.99pb4"
PERFORMER "Andy Stott"
TITLE "Unknown Exception"
FILE "01 - Fear Of Heights.wav" WAVE
  TRACK 01 AUDIO
    TITLE "Fear Of Heights"
    PERFORMER "Andy Stott"
    INDEX 01 00:00:00
FILE "02 - Bad Landing.wav" WAVE
  TRACK 02 AUDIO
    TITLE "Bad Landing"
    PERFORMER "Andy Stott"
    INDEX 01 00:00:00
FILE "03 - Handle With Care.wav" WAVE
  TRACK 03 AUDIO
    TITLE "Handle With Care"
    PERFORMER "Andy Stott"
    INDEX 01 00:00:00
FILE "04 - Long Drive.wav" WAVE
  TRACK 04 AUDIO
    TITLE "Long Drive"
    PERFORMER "Andy Stott"
    INDEX 01 00:00:00
FILE "05 - Credit.wav" WAVE
  TRACK 05 AUDIO
    TITLE "Credit"
    PERFORMER "Andy Stott"
    INDEX 01 00:00:00
FILE "06 - Massacre.wav" WAVE
  TRACK 06 AUDIO
    TITLE "Massacre"
    PERFORMER "Andy Stott"
    INDEX 01 00:00:00
FILE "07 - See In Me.wav" WAVE
  TRACK 07 AUDIO
    TITLE "See In Me"
    PERFORMER "Andy Stott"
    INDEX 01 00:00:00
FILE "08 - Made Your Point.wav" WAVE
  TRACK 08 AUDIO
    TITLE "Made Your Point"
    PERFORMER "Andy Stott"
    INDEX 01 00:00:00
FILE "09 - She's Gone Wrong.wav" WAVE
  TRACK 09 AUDIO
    TITLE "She's Gone Wrong"
    PERFORMER "Andy Stott"
    INDEX 01 00:00:00
FILE "10 - Fine Metallic Dollar.wav" WAVE
  TRACK 10 AUDIO
    TITLE "Fine Metallic Dollar"
    PERFORMER "Andy Stott"
    INDEX 01 00:00:00
FILE "11 - Hostile.wav" WAVE
  TRACK 11 AUDIO
    TITLE "Hostile"
    PERFORMER "Andy Stott"
    INDEX 01 00:00:00
FILE "12 - Replace.wav" WAVE
  TRACK 12 AUDIO
    TITLE "Replace"
    PERFORMER "Andy Stott"
    INDEX 01 00:00:00

 
#77Год выпуска: 2011
Продолжительность: 00:45:24
Треклист:

01. Signature (00:37)
02. New Ground (06:22)
03. North To South (04:51)
04. Intermittent (03:27)
05. Dark Details (06:04)
06. Execution (05:15)
07. Passed Me By (06:54)
08. Stitch House (06:19)
09. Love Nothing (05:35)
Код: Выделить всё
X Lossless Decoder version 20111214 (138.1)

XLD extraction logfile from 2011-12-19 11:51:11 -0600

Andy Stott / Passed Me By / We Stay Together

Used drive : HL-DT-ST DVDRW  GSA-S10N6 (revision AS39)

Ripper mode             : XLD Secure Ripper
Disable audio cache     : OK for the drive with a cache less than 1375KiB
Make use of C2 pointers : NO
Read offset correction  : 667
Max retry count         : 100
Gap status              : Analyzed, Appended

TOC of the extracted CD
     Track |   Start  |  Length  | Start sector | End sector
    ---------------------------------------------------------
        1  | 00:00:00 | 00:37:35 |         0    |     2809
        2  | 00:37:35 | 06:21:46 |      2810    |    31430
        3  | 06:59:06 | 04:50:65 |     31431    |    53245
        4  | 11:49:71 | 03:26:48 |     53246    |    68743
        5  | 15:16:44 | 06:04:01 |     68744    |    96044
        6  | 21:20:45 | 05:15:33 |     96045    |   119702
        7  | 26:36:03 | 06:53:72 |    119703    |   150749
        8  | 33:30:00 | 06:19:15 |    150750    |   179189
        9  | 39:49:15 | 05:34:47 |    179190    |   204286

AccurateRip Summary
    Disc not found in AccurateRip DB.

All Tracks
    Album gain             : -4.49 dB
    Peak                   : 1.000000
    Statistics
        Read error                           : 0
        Jitter error (maybe fixed)           : 0
        Retry sector count                   : 0
        Damaged sector count                 : 0

Track 01
    Filename : /Users/david/Desktop/Encoding/Andy Stott - Passed Me By / We Stay Together (2011) [FLAC]/01-01 Signature.flac
    Pre-gap length : 00:02:00

    Track gain             : -6.53 dB
    Peak                   : 0.881409
    CRC32 hash (test run)  : 55C265B1
    CRC32 hash             : 55C265B1
    CRC32 hash (skip zero) : A52ECFF7
    AccurateRip signature  : E3FD06F9
        ->Track not present in AccurateRip database.
    Statistics
        Read error                           : 0
        Jitter error (maybe fixed)           : 0
        Retry sector count                   : 0
        Damaged sector count                 : 0

Track 02
    Filename : /Users/david/Desktop/Encoding/Andy Stott - Passed Me By / We Stay Together (2011) [FLAC]/01-02 New Ground.flac

    Track gain             : -4.50 dB
    Peak                   : 0.967712
    CRC32 hash (test run)  : 158A6695
    CRC32 hash             : 158A6695
    CRC32 hash (skip zero) : 9311C038
    AccurateRip signature  : 5CA2F9FD
        ->Track not present in AccurateRip database.
    Statistics
        Read error                           : 0
        Jitter error (maybe fixed)           : 0
        Retry sector count                   : 0
        Damaged sector count                 : 0

Track 03
    Filename : /Users/david/Desktop/Encoding/Andy Stott - Passed Me By / We Stay Together (2011) [FLAC]/01-03 North To South.flac

    Track gain             : -5.06 dB
    Peak                   : 0.967041
    CRC32 hash (test run)  : B3192D89
    CRC32 hash             : B3192D89
    CRC32 hash (skip zero) : 7FD9E24F
    AccurateRip signature  : EA96602B
        ->Track not present in AccurateRip database.
    Statistics
        Read error                           : 0
        Jitter error (maybe fixed)           : 0
        Retry sector count                   : 0
        Damaged sector count                 : 0

Track 04
    Filename : /Users/david/Desktop/Encoding/Andy Stott - Passed Me By / We Stay Together (2011) [FLAC]/01-04 Intermittent.flac

    Track gain             : -3.37 dB
    Peak                   : 0.787262
    CRC32 hash (test run)  : F03545B9
    CRC32 hash             : F03545B9
    CRC32 hash (skip zero) : 743B8F1F
    AccurateRip signature  : 6B4EEC17
        ->Track not present in AccurateRip database.
    Statistics
        Read error                           : 0
        Jitter error (maybe fixed)           : 0
        Retry sector count                   : 0
        Damaged sector count                 : 0

Track 05
    Filename : /Users/david/Desktop/Encoding/Andy Stott - Passed Me By / We Stay Together (2011) [FLAC]/01-05 Dark Details.flac

    Track gain             : -5.42 dB
    Peak                   : 0.983887
    CRC32 hash (test run)  : E7904CFD
    CRC32 hash             : E7904CFD
    CRC32 hash (skip zero) : 9E0E0577
    AccurateRip signature  : F094E307
        ->Track not present in AccurateRip database.
    Statistics
        Read error                           : 0
        Jitter error (maybe fixed)           : 0
        Retry sector count                   : 0
        Damaged sector count                 : 0

Track 06
    Filename : /Users/david/Desktop/Encoding/Andy Stott - Passed Me By / We Stay Together (2011) [FLAC]/01-06 Execution.flac

    Track gain             : -3.09 dB
    Peak                   : 0.980774
    CRC32 hash (test run)  : 6CA04A60
    CRC32 hash             : 6CA04A60
    CRC32 hash (skip zero) : D9BA954D
    AccurateRip signature  : 849FB93F
        ->Track not present in AccurateRip database.
    Statistics
        Read error                           : 0
        Jitter error (maybe fixed)           : 0
        Retry sector count                   : 0
        Damaged sector count                 : 0

Track 07
    Filename : /Users/david/Desktop/Encoding/Andy Stott - Passed Me By / We Stay Together (2011) [FLAC]/01-07 Passed Me By.flac

    Track gain             : -6.09 dB
    Peak                   : 0.967194
    CRC32 hash (test run)  : A3F64875
    CRC32 hash             : A3F64875
    CRC32 hash (skip zero) : FDEF4C97
    AccurateRip signature  : 2A00A465
        ->Track not present in AccurateRip database.
    Statistics
        Read error                           : 0
        Jitter error (maybe fixed)           : 0
        Retry sector count                   : 0
        Damaged sector count                 : 0

Track 08
    Filename : /Users/david/Desktop/Encoding/Andy Stott - Passed Me By / We Stay Together (2011) [FLAC]/01-08 Stitch House.flac

    Track gain             : -3.62 dB
    Peak                   : 1.000000
    CRC32 hash (test run)  : D35DBFFA
    CRC32 hash             : D35DBFFA
    CRC32 hash (skip zero) : CF7109BD
    AccurateRip signature  : C1161A38
        ->Track not present in AccurateRip database.
    Statistics
        Read error                           : 0
        Jitter error (maybe fixed)           : 0
        Retry sector count                   : 0
        Damaged sector count                 : 0

Track 09
    Filename : /Users/david/Desktop/Encoding/Andy Stott - Passed Me By / We Stay Together (2011) [FLAC]/01-09 Love Nothing.flac

    Track gain             : -2.81 dB
    Peak                   : 0.962769
    CRC32 hash (test run)  : 20EE0431
    CRC32 hash             : 20EE0431
    CRC32 hash (skip zero) : 3654CA30
    AccurateRip signature  : B5E5E1F8
        ->Track not present in AccurateRip database.
    Statistics
        Read error                           : 0
        Jitter error (maybe fixed)           : 0
        Retry sector count                   : 0
        Damaged sector count                 : 0

No errors occurred

End of status report

 
Код: Выделить всё
TITLE "Passed Me By / We Stay Together"
PERFORMER "Andy Stott"
REM DATE "2011"
REM DISCNUMBER 1
REM TOTALDISCS 2
REM DISCID 680AA309
REM REPLAYGAIN_ALBUM_GAIN -4.49 dB
REM REPLAYGAIN_ALBUM_PEAK 1.000000
FILE "01-01 Signature.flac" WAVE
  TRACK 01 AUDIO
    TITLE "Signature"
    REM REPLAYGAIN_TRACK_GAIN -6.53 dB
    REM REPLAYGAIN_TRACK_PEAK 0.881409
    INDEX 01 00:00:00
FILE "01-02 New Ground.flac" WAVE
  TRACK 02 AUDIO
    TITLE "New Ground"
    REM REPLAYGAIN_TRACK_GAIN -4.50 dB
    REM REPLAYGAIN_TRACK_PEAK 0.967712
    INDEX 01 00:00:00
FILE "01-03 North To South.flac" WAVE
  TRACK 03 AUDIO
    TITLE "North To South"
    REM REPLAYGAIN_TRACK_GAIN -5.06 dB
    REM REPLAYGAIN_TRACK_PEAK 0.967041
    INDEX 01 00:00:00
FILE "01-04 Intermittent.flac" WAVE
  TRACK 04 AUDIO
    TITLE "Intermittent"
    REM REPLAYGAIN_TRACK_GAIN -3.37 dB
    REM REPLAYGAIN_TRACK_PEAK 0.787262
    INDEX 01 00:00:00
FILE "01-05 Dark Details.flac" WAVE
  TRACK 05 AUDIO
    TITLE "Dark Details"
    REM REPLAYGAIN_TRACK_GAIN -5.42 dB
    REM REPLAYGAIN_TRACK_PEAK 0.983887
    INDEX 01 00:00:00
FILE "01-06 Execution.flac" WAVE
  TRACK 06 AUDIO
    TITLE "Execution"
    REM REPLAYGAIN_TRACK_GAIN -3.09 dB
    REM REPLAYGAIN_TRACK_PEAK 0.980774
    INDEX 01 00:00:00
FILE "01-07 Passed Me By.flac" WAVE
  TRACK 07 AUDIO
    TITLE "Passed Me By"
    REM REPLAYGAIN_TRACK_GAIN -6.09 dB
    REM REPLAYGAIN_TRACK_PEAK 0.967194
    INDEX 01 00:00:00
FILE "01-08 Stitch House.flac" WAVE
  TRACK 08 AUDIO
    TITLE "Stitch House"
    REM REPLAYGAIN_TRACK_GAIN -3.62 dB
    REM REPLAYGAIN_TRACK_PEAK 1.000000
    INDEX 01 00:00:00
FILE "01-09 Love Nothing.flac" WAVE
  TRACK 09 AUDIO
    TITLE "Love Nothing"
    REM REPLAYGAIN_TRACK_GAIN -2.81 dB
    REM REPLAYGAIN_TRACK_PEAK 0.962769
    INDEX 01 00:00:00

 
#77Год выпуска: 2011
Продолжительность: 00:51:24
Треклист:

01. Submission (04:50)
02. Posers (05:08)
03. Bad Wires (07:21)
04. We Stay Together (Part One) (06:36)
05. Cherry Eye (07:33)
06. Cracked (05:36)
07. Work Gate (08:44)
08. We Stay Together (Part Two) (05:36)
Код: Выделить всё
X Lossless Decoder version 20111214 (138.1)

XLD extraction logfile from 2011-12-19 11:13:54 -0600

Andy Stott / Passed Me By / We Stay Together

Used drive : HL-DT-ST DVDRW  GSA-S10N6 (revision AS39)

Ripper mode             : XLD Secure Ripper
Disable audio cache     : OK for the drive with a cache less than 1375KiB
Make use of C2 pointers : NO
Read offset correction  : 667
Max retry count         : 100
Gap status              : Analyzed, Appended

TOC of the extracted CD
     Track |   Start  |  Length  | Start sector | End sector
    ---------------------------------------------------------
        1  | 00:00:00 | 04:50:33 |         0    |    21782
        2  | 04:50:33 | 05:07:41 |     21783    |    44848
        3  | 09:57:74 | 07:21:00 |     44849    |    77923
        4  | 17:18:74 | 06:36:07 |     77924    |   107630
        5  | 23:55:06 | 07:32:58 |    107631    |   141588
        6  | 31:27:64 | 05:36:12 |    141589    |   166800
        7  | 37:04:01 | 08:44:32 |    166801    |   206132
        8  | 45:48:33 | 05:36:01 |    206133    |   231333

AccurateRip Summary
    Disc not found in AccurateRip DB.

All Tracks
    Album gain             : -5.22 dB
    Peak                   : 1.000000
    Statistics
        Read error                           : 0
        Jitter error (maybe fixed)           : 0
        Retry sector count                   : 0
        Damaged sector count                 : 0

Track 01
    Filename : /Users/david/Desktop/Encoding/Andy Stott - Passed Me By / We Stay Together (2011) [FLAC]/02-01 Submission.flac
    Pre-gap length : 00:02:00

    Track gain             : -7.17 dB
    Peak                   : 0.962830
    CRC32 hash (test run)  : BD3DDAAB
    CRC32 hash             : BD3DDAAB
    CRC32 hash (skip zero) : 5B2A70BD
    AccurateRip signature  : 97DBC3EA
        ->Track not present in AccurateRip database.
    Statistics
        Read error                           : 0
        Jitter error (maybe fixed)           : 0
        Retry sector count                   : 0
        Damaged sector count                 : 0

Track 02
    Filename : /Users/david/Desktop/Encoding/Andy Stott - Passed Me By / We Stay Together (2011) [FLAC]/02-02 Posers.flac

    Track gain             : -4.73 dB
    Peak                   : 0.962555
    CRC32 hash (test run)  : 6F5FEE86
    CRC32 hash             : 6F5FEE86
    CRC32 hash (skip zero) : 63F81059
    AccurateRip signature  : 9694F4A8
        ->Track not present in AccurateRip database.
    Statistics
        Read error                           : 0
        Jitter error (maybe fixed)           : 0
        Retry sector count                   : 0
        Damaged sector count                 : 0

Track 03
    Filename : /Users/david/Desktop/Encoding/Andy Stott - Passed Me By / We Stay Together (2011) [FLAC]/02-03 Bad Wires.flac

    Track gain             : -4.82 dB
    Peak                   : 0.962677
    CRC32 hash (test run)  : A5C6D2B0
    CRC32 hash             : A5C6D2B0
    CRC32 hash (skip zero) : 59A0232B
    AccurateRip signature  : 962AD850
        ->Track not present in AccurateRip database.
    Statistics
        Read error                           : 0
        Jitter error (maybe fixed)           : 0
        Retry sector count                   : 0
        Damaged sector count                 : 0

Track 04
    Filename : /Users/david/Desktop/Encoding/Andy Stott - Passed Me By / We Stay Together (2011) [FLAC]/02-04 We Stay Together (Part One).flac

    Track gain             : -3.18 dB
    Peak                   : 0.962402
    CRC32 hash (test run)  : ABC6B204
    CRC32 hash             : ABC6B204
    CRC32 hash (skip zero) : EFD13C97
    AccurateRip signature  : A38CB7AE
        ->Track not present in AccurateRip database.
    Statistics
        Read error                           : 0
        Jitter error (maybe fixed)           : 0
        Retry sector count                   : 0
        Damaged sector count                 : 0

Track 05
    Filename : /Users/david/Desktop/Encoding/Andy Stott - Passed Me By / We Stay Together (2011) [FLAC]/02-05 Cherry Eye.flac

    Track gain             : -3.83 dB
    Peak                   : 0.964081
    CRC32 hash (test run)  : FBA7716F
    CRC32 hash             : FBA7716F
    CRC32 hash (skip zero) : C24BF34A
    AccurateRip signature  : 48B2763F
        ->Track not present in AccurateRip database.
    Statistics
        Read error                           : 0
        Jitter error (maybe fixed)           : 0
        Retry sector count                   : 0
        Damaged sector count                 : 0

Track 06
    Filename : /Users/david/Desktop/Encoding/Andy Stott - Passed Me By / We Stay Together (2011) [FLAC]/02-06 Cracked.flac

    Track gain             : -4.26 dB
    Peak                   : 0.963409
    CRC32 hash (test run)  : D63CA8E3
    CRC32 hash             : D63CA8E3
    CRC32 hash (skip zero) : D7CC1727
    AccurateRip signature  : D934892B
        ->Track not present in AccurateRip database.
    Statistics
        Read error                           : 0
        Jitter error (maybe fixed)           : 0
        Retry sector count                   : 0
        Damaged sector count                 : 0

Track 07
    Filename : /Users/david/Desktop/Encoding/Andy Stott - Passed Me By / We Stay Together (2011) [FLAC]/02-07 Work Gate.flac

    Track gain             : -0.06 dB
    Peak                   : 1.000000
    CRC32 hash (test run)  : 5D3AD71F
    CRC32 hash             : 5D3AD71F
    CRC32 hash (skip zero) : DDE40D5A
    AccurateRip signature  : 12FE41AE
        ->Track not present in AccurateRip database.
    Statistics
        Read error                           : 0
        Jitter error (maybe fixed)           : 0
        Retry sector count                   : 0
        Damaged sector count                 : 0

Track 08
    Filename : /Users/david/Desktop/Encoding/Andy Stott - Passed Me By / We Stay Together (2011) [FLAC]/02-08 We Stay Together (Part Two).flac

    Track gain             : -2.55 dB
    Peak                   : 1.000000
    CRC32 hash (test run)  : 40C028A5
    CRC32 hash             : 40C028A5
    CRC32 hash (skip zero) : BA970C1D
    AccurateRip signature  : 62253395
        ->Track not present in AccurateRip database.
    Statistics
        Read error                           : 0
        Jitter error (maybe fixed)           : 0
        Retry sector count                   : 0
        Damaged sector count                 : 0

No errors occurred

End of status report

 
Код: Выделить всё
TITLE "Passed Me By / We Stay Together"
PERFORMER "Andy Stott"
REM DATE "2011"
REM DISCNUMBER 2
REM TOTALDISCS 2
REM DISCID 6E0C0C08
REM REPLAYGAIN_ALBUM_GAIN -5.22 dB
REM REPLAYGAIN_ALBUM_PEAK 1.000000
FILE "02-01 Submission.flac" WAVE
  TRACK 01 AUDIO
    TITLE "Submission"
    REM REPLAYGAIN_TRACK_GAIN -7.17 dB
    REM REPLAYGAIN_TRACK_PEAK 0.962830
    INDEX 01 00:00:00
FILE "02-02 Posers.flac" WAVE
  TRACK 02 AUDIO
    TITLE "Posers"
    REM REPLAYGAIN_TRACK_GAIN -4.73 dB
    REM REPLAYGAIN_TRACK_PEAK 0.962555
    INDEX 01 00:00:00
FILE "02-03 Bad Wires.flac" WAVE
  TRACK 03 AUDIO
    TITLE "Bad Wires"
    REM REPLAYGAIN_TRACK_GAIN -4.82 dB
    REM REPLAYGAIN_TRACK_PEAK 0.962677
    INDEX 01 00:00:00
FILE "02-04 We Stay Together (Part One).flac" WAVE
  TRACK 04 AUDIO
    TITLE "We Stay Together (Part One)"
    REM REPLAYGAIN_TRACK_GAIN -3.18 dB
    REM REPLAYGAIN_TRACK_PEAK 0.962402
    INDEX 01 00:00:00
FILE "02-05 Cherry Eye.flac" WAVE
  TRACK 05 AUDIO
    TITLE "Cherry Eye"
    REM REPLAYGAIN_TRACK_GAIN -3.83 dB
    REM REPLAYGAIN_TRACK_PEAK 0.964081
    INDEX 01 00:00:00
FILE "02-06 Cracked.flac" WAVE
  TRACK 06 AUDIO
    TITLE "Cracked"
    REM REPLAYGAIN_TRACK_GAIN -4.26 dB
    REM REPLAYGAIN_TRACK_PEAK 0.963409
    INDEX 01 00:00:00
FILE "02-07 Work Gate.flac" WAVE
  TRACK 07 AUDIO
    TITLE "Work Gate"
    REM REPLAYGAIN_TRACK_GAIN -0.06 dB
    REM REPLAYGAIN_TRACK_PEAK 1.000000
    INDEX 01 00:00:00
FILE "02-08 We Stay Together (Part Two).flac" WAVE
  TRACK 08 AUDIO
    TITLE "We Stay Together (Part Two)"
    REM REPLAYGAIN_TRACK_GAIN -2.55 dB
    REM REPLAYGAIN_TRACK_PEAK 1.000000
    INDEX 01 00:00:00

 
#77Год выпуска: 2005
Продолжительность: 00:13:24
Треклист:

01. Ceramics (06:14)
02. Credit (07:10)
Код: Выделить всё
-----------------------

DON'T MODIFY THIS FILE

-----------------------

PERFORMER: auCDtect Task Manager, ver. 1.5.1RC6 build 1.5.1.7
Copyright (c) 2008-2010 y-soft. All rights reserved
[url=http://y-soft.org]http://y-soft.org[/url]

ANALYZER: auCDtect: CD records authenticity detector, version 0.8.2
Copyright (c) 2004 Oleg Berngardt. All rights reserved.
Copyright (c) 2004 Alexander Djourik. All rights reserved.

FILE: 02. Credit.flac
  Size: 51255254 Hash: 635E3BACC8F77047375853F7689EDF2C Accuracy: -m0
  Conclusion: CDDA 100%
  Signature: 9E349EA47EEF72BA5F7EF26871C6511B9A624DB9
FILE: 01. Ceramics.flac
  Size: 35031219 Hash: 2CA33FE19864A5A69BD52527FEFC3DBC Accuracy: -m0
  Conclusion: CDDA 100%
  Signature: 80347CA5C6F3449E703FA617A84A0D9FF98DC208

 
#77Год выпуска: 2005
Продолжительность: 00:13:41
Треклист:

01. Demon In The Attic (06:34)
02. Come Together (07:07)
Код: Выделить всё
-----------------------

DON'T MODIFY THIS FILE

-----------------------

PERFORMER: auCDtect Task Manager, ver. 1.5.1RC6 build 1.5.1.7
Copyright (c) 2008-2010 y-soft. All rights reserved
[url=http://y-soft.org]http://y-soft.org[/url]

ANALYZER: auCDtect: CD records authenticity detector, version 0.8.2
Copyright (c) 2004 Oleg Berngardt. All rights reserved.
Copyright (c) 2004 Alexander Djourik. All rights reserved.

FILE: 02. Come Together.flac
  Size: 31248507 Hash: 2E8BF370B6FA9497C14E8BEDDA339C05 Accuracy: -m0
  Conclusion: CDDA 100%
  Signature: 5D1FCB6CC342920A037932B57CE0F9081CB79797
FILE: 01. Demon In The Attic.flac
  Size: 26746906 Hash: 6EC211E1A80A87ECEAB5DB2A675ECC35 Accuracy: -m0
  Conclusion: CDDA 100%
  Signature: DFA34165F279629C3A32294991C7E6E581AE109E

 
#77Год выпуска: 2005
Продолжительность: 00:18:02
Треклист:

01. 8ight (03:45)
02. Talk Touch (04:10)
03. Long Drive (05:32)
04. Replace (04:35)
Код: Выделить всё
-----------------------

DON'T MODIFY THIS FILE

-----------------------

PERFORMER: auCDtect Task Manager, ver. 1.5.1RC6 build 1.5.1.7
Copyright (c) 2008-2010 y-soft. All rights reserved
[url=http://y-soft.org]http://y-soft.org[/url]

ANALYZER: auCDtect: CD records authenticity detector, version 0.8.2
Copyright (c) 2004 Oleg Berngardt. All rights reserved.
Copyright (c) 2004 Alexander Djourik. All rights reserved.

FILE: 04. Replace.flac
  Size: 15227609 Hash: C736C8017C13F51C2521F654615D4E9B Accuracy: -m0
  Conclusion: CDDA 99%
  Signature: CB98183026A6007D581B4A9310D52BC8C0354C05
FILE: 03. Long Drive.flac
  Size: 24644130 Hash: 54D509E25D77EC1EE4B6CD8D6E227347 Accuracy: -m0
  Conclusion: CDDA 100%
  Signature: 362BCF7C370B8D937DF84D5667539B7CF86454C6
FILE: 02. Talk Touch.flac
  Size: 17742442 Hash: 3E6AEFFB171E9169AD8966C368E44754 Accuracy: -m0
  Conclusion: CDDA 100%
  Signature: EB0B86F1DDDFCFDA8B4EC81AFB3077AA4B3E0848
FILE: 01. 8ight.flac
  Size: 20017531 Hash: E806DE126B6553A88F55B32C745F9139 Accuracy: -m0
  Conclusion: CDDA 100%
  Signature: 5A08B4F692F709C8EC6970F336E9E1A020862B86

 
#77Год выпуска: 2006
Продолжительность: 00:10:29
Треклист:

01. Choke (05:23)
02. For The Love (05:06)
Код: Выделить всё
-----------------------

DON'T MODIFY THIS FILE

-----------------------

PERFORMER: auCDtect Task Manager, ver. 1.5.1RC6 build 1.5.1.7
Copyright (c) 2008-2010 y-soft. All rights reserved
[url=http://y-soft.org]http://y-soft.org[/url]

ANALYZER: auCDtect: CD records authenticity detector, version 0.8.2
Copyright (c) 2004 Oleg Berngardt. All rights reserved.
Copyright (c) 2004 Alexander Djourik. All rights reserved.

FILE: 02. For The Love.flac
  Size: 27673547 Hash: 57B525C33B25EED2D96CCCB1F12F0729 Accuracy: -m0
  Conclusion: CDDA 100%
  Signature: 71B410789CF9C9C8DE4B130ADE9C5D94C60C2976
FILE: 01. Choke.flac
  Size: 19440585 Hash: B43ECE63A25CD010675217D0235095AC Accuracy: -m0
  Conclusion: CDDA 100%
  Signature: BF99A0BC7E26AF161D68C593BD43D82F5D0D0E52

 
#77Год выпуска: 2006
Продолжительность: 00:09:23
Треклист:

01. Nervous (03:52)
02. She's Gone Wrong (05:31)
Код: Выделить всё
-----------------------

DON'T MODIFY THIS FILE

-----------------------

PERFORMER: auCDtect Task Manager, ver. 1.5.1RC6 build 1.5.1.7
Copyright (c) 2008-2010 y-soft. All rights reserved
[url=http://y-soft.org]http://y-soft.org[/url]

ANALYZER: auCDtect: CD records authenticity detector, version 0.8.2
Copyright (c) 2004 Oleg Berngardt. All rights reserved.
Copyright (c) 2004 Alexander Djourik. All rights reserved.

FILE: 02. She's Gone Wrong.flac
  Size: 28097858 Hash: DCE77258582CD6D276511B52F6B33FFF Accuracy: -m0
  Conclusion: CDDA 100%
  Signature: E25540D5FF6FA76623F9E27DD3703689814B1810
FILE: 01. Nervous.flac
  Size: 12444734 Hash: 011A8F4E8C8FA988B34D7F83014D2AA9 Accuracy: -m0
  Conclusion: CDDA 100%
  Signature: 3E33EBC2BAC322A204E7308A692493F9EC4ED986

 
#77Год выпуска: 2007
Продолжительность: 00:11:05
Треклист:

01. Handle With Care (04:58)
02. See In Me (06:07)
Код: Выделить всё
-----------------------

DON'T MODIFY THIS FILE

-----------------------

PERFORMER: auCDtect Task Manager, ver. 1.5.1RC6 build 1.5.1.7
Copyright (c) 2008-2010 y-soft. All rights reserved
[url=http://y-soft.org]http://y-soft.org[/url]

ANALYZER: auCDtect: CD records authenticity detector, version 0.8.2
Copyright (c) 2004 Oleg Berngardt. All rights reserved.
Copyright (c) 2004 Alexander Djourik. All rights reserved.

FILE: 02. See In Me.flac
  Size: 28096540 Hash: AD71698A14E4AD995CDF38C352D6AAAA Accuracy: -m0
  Conclusion: CDDA 100%
  Signature: DA85A30C7854DB9D4B059CFA3C29A9960A1460AB
FILE: 01. Handle With Care.flac
  Size: 19854318 Hash: 626572B436BAB0E101E29E24A899226C Accuracy: -m0
  Conclusion: CDDA 100%
  Signature: 962C640E367CE1E88A3816A0C5C66067E87404FB

 
#77Год выпуска: 2007
Продолжительность: 00:06:46
Треклист:

01. Hostile (06:46)
Код: Выделить всё
-----------------------

DON'T MODIFY THIS FILE

-----------------------

PERFORMER: auCDtect Task Manager, ver. 1.5.1RC6 build 1.5.1.7
Copyright (c) 2008-2010 y-soft. All rights reserved
[url=http://y-soft.org]http://y-soft.org[/url]

ANALYZER: auCDtect: CD records authenticity detector, version 0.8.2
Copyright (c) 2004 Oleg Berngardt. All rights reserved.
Copyright (c) 2004 Alexander Djourik. All rights reserved.

FILE: 01. Hostile.flac
  Size: 33356191 Hash: 627B710D6200E8900040ED0FE3474669 Accuracy: -m0
  Conclusion: CDDA 100%
  Signature: AD9BE427FB1E5EFB8F2B57E9ADA657B46AFA7E68

 
#77Год выпуска: 2007
Продолжительность: 00:14:43
Треклист:

01. Unknown Exception (07:44)
02. Massacre (06:59)
Код: Выделить всё
-----------------------

DON'T MODIFY THIS FILE

-----------------------

PERFORMER: auCDtect Task Manager, ver. 1.5.1RC6 build 1.5.1.7
Copyright (c) 2008-2010 y-soft. All rights reserved
[url=http://y-soft.org]http://y-soft.org[/url]

ANALYZER: auCDtect: CD records authenticity detector, version 0.8.2
Copyright (c) 2004 Oleg Berngardt. All rights reserved.
Copyright (c) 2004 Alexander Djourik. All rights reserved.

FILE: 02. Massacre.flac
  Size: 30961074 Hash: 7D4AF8823A1AB23D6C841A46C91632AD Accuracy: -m0
  Conclusion: CDDA 100%
  Signature: 3D0E3B9CE6CB536A8E7272065E0BB325EC65F1CB
FILE: 01. Unknown Exception.flac
  Size: 33461044 Hash: 52582DA8851C285E6C64453EA14E91C0 Accuracy: -m0
  Conclusion: CDDA 100%
  Signature: FD2CDF70F814C10D7713E69AA4AF0BC5A59054EB

 
#77Год выпуска: 2008
Продолжительность: 00:13:03
Треклист:

01. Fine Metallic Dollar (06:53)
02. Bad Landing (06:10)
Код: Выделить всё
-----------------------

DON'T MODIFY THIS FILE

-----------------------

PERFORMER: auCDtect Task Manager, ver. 1.5.1RC6 build 1.5.1.7
Copyright (c) 2008-2010 y-soft. All rights reserved
[url=http://y-soft.org]http://y-soft.org[/url]

ANALYZER: auCDtect: CD records authenticity detector, version 0.8.2
Copyright (c) 2004 Oleg Berngardt. All rights reserved.
Copyright (c) 2004 Alexander Djourik. All rights reserved.

FILE: 02. Bad Landing.flac
  Size: 27303843 Hash: 3A0CD42D4688130876637AB6832A4886 Accuracy: -m0
  Conclusion: CDDA 100%
  Signature: 49B2FB98AFCAA14922F5A08100B9516135C1568F
FILE: 01. Fine Metallic Dollar.flac
  Size: 29520979 Hash: 4B4991A8E5BC0F45BD13AC9D87085550 Accuracy: -m0
  Conclusion: CDDA 100%
  Signature: D47A6D8195EEB8A2DD22E3EBB1BAC14A16826338

 
#77Год выпуска: 2009
Продолжительность: 00:11:52
Треклист:

01. Brief Encounter (06:16)
02. Drippin (05:36)
Код: Выделить всё
-----------------------

DON'T MODIFY THIS FILE

-----------------------

PERFORMER: auCDtect Task Manager, ver. 1.5.1RC6 build 1.5.1.7
Copyright (c) 2008-2010 y-soft. All rights reserved
[url=http://y-soft.org]http://y-soft.org[/url]

ANALYZER: auCDtect: CD records authenticity detector, version 0.8.2
Copyright (c) 2004 Oleg Berngardt. All rights reserved.
Copyright (c) 2004 Alexander Djourik. All rights reserved.

FILE: 02. Drippin.flac
  Size: 36861016 Hash: CB2909580DDEFD59B9BB222DFFF3FE67 Accuracy: -m0
  Conclusion: CDDA 100%
  Signature: F6E704ED6687467F94074ADC66DFB6ED3166E0D5
FILE: 01. Brief Encounter.flac
  Size: 34309228 Hash: 0B1946BEA1AEB9BA9796F7EB8C17E0AE Accuracy: -m0
  Conclusion: CDDA 99%
  Signature: 616B091AEE7C112EAF5E2E4E28EBF5A9218E951E

 
#77Год выпуска: 2009
Продолжительность: 00:12:28
Треклист:

01. Fear Of Heights (06:23)
02. Made Your Point (06:05)
Код: Выделить всё
-----------------------

DON'T MODIFY THIS FILE

-----------------------

PERFORMER: auCDtect Task Manager, ver. 1.5.1RC6 build 1.5.1.7
Copyright (c) 2008-2010 y-soft. All rights reserved
[url=http://y-soft.org]http://y-soft.org[/url]

ANALYZER: auCDtect: CD records authenticity detector, version 0.8.2
Copyright (c) 2004 Oleg Berngardt. All rights reserved.
Copyright (c) 2004 Alexander Djourik. All rights reserved.

FILE: 02. Made Your Point.flac
  Size: 33137973 Hash: 3F2AB027A64A25FE8A8AB5DE6A51C428 Accuracy: -m0
  Conclusion: CDDA 100%
  Signature: 75B554A988EDE52A45C7B9F0079C200B734BCFEC
FILE: 01. Fear Of Heights.flac
  Size: 33896409 Hash: CC218DB82747242410A5F3C1A6850147 Accuracy: -m0
  Conclusion: CDDA 100%
  Signature: 3B37F9250CDA212A99D005260F5B2D4F410479DF

 
#77Год выпуска: 2009
Продолжительность: 00:06:49
Треклист:

01. Night Jewel (06:49)
Код: Выделить всё
-----------------------

DON'T MODIFY THIS FILE

-----------------------

PERFORMER: auCDtect Task Manager, ver. 1.5.1RC6 build 1.5.1.7
Copyright (c) 2008-2010 y-soft. All rights reserved
[url=http://y-soft.org]http://y-soft.org[/url]

ANALYZER: auCDtect: CD records authenticity detector, version 0.8.2
Copyright (c) 2004 Oleg Berngardt. All rights reserved.
Copyright (c) 2004 Alexander Djourik. All rights reserved.

FILE: 01. Night Jewel.flac
  Size: 38212080 Hash: 3D6A9072295DAC42E8588CAB8AF67BCD Accuracy: -m0
  Conclusion: CDDA 100%
  Signature: EFCE924C14DC33627FF245437F92D33D9AB80068

 
#77Год выпуска: 2010
Продолжительность: 00:11:18
Треклист:

01. Tell Me Anything (05:43)
02. Love Nothing (05:35)
Код: Выделить всё
-----------------------

DON'T MODIFY THIS FILE

-----------------------

PERFORMER: auCDtect Task Manager, ver. 1.5.1RC6 build 1.5.1.7
Copyright (c) 2008-2010 y-soft. All rights reserved
[url=http://y-soft.org]http://y-soft.org[/url]

ANALYZER: auCDtect: CD records authenticity detector, version 0.8.2
Copyright (c) 2004 Oleg Berngardt. All rights reserved.
Copyright (c) 2004 Alexander Djourik. All rights reserved.

FILE: 02. Love Nothing.flac
  Size: 29086238 Hash: 6CE64BFB3FF05F67AD75291B9AB86F97 Accuracy: -m0
  Conclusion: CDDA 100%
  Signature: B0E5040F4A7176A2B1BC31454D44C34DAFC97205
FILE: 01. Tell Me Anything.flac
  Size: 32978266 Hash: C4B396247AB8974080CE1EA17F7BFF5B Accuracy: -m0
  Conclusion: CDDA 100%
  Signature: 744C0BF40A84D2212534CC561FBCDB39BB88F7DC

 
#77Год выпуска: 2011
Продолжительность: 00:33:30
Треклист:

01. Signature (00:37)
02. New Ground (06:22)
03. North To South (04:51)
04. Intermittent (03:27)
05. Dark Details (06:04)
06. Execution (05:15)
07. Passed Me By (06:54)
Код: Выделить всё
-----------------------

DON'T MODIFY THIS FILE

-----------------------

PERFORMER: auCDtect Task Manager, ver. 1.5.1RC6 build 1.5.1.7
Copyright (c) 2008-2010 y-soft. All rights reserved
[url=http://y-soft.org]http://y-soft.org[/url]

ANALYZER: auCDtect: CD records authenticity detector, version 0.8.2
Copyright (c) 2004 Oleg Berngardt. All rights reserved.
Copyright (c) 2004 Alexander Djourik. All rights reserved.

FILE: 07. Passed Me By.flac
  Size: 31047193 Hash: AAB8A7D093D697C7C6F0769E8E52F161 Accuracy: -m0
  Conclusion: CDDA 100%
  Signature: 4047369C040BD45B0E78F314ACE2AF7EFD7A2AE1
FILE: 06. Execution.flac
  Size: 26866669 Hash: 244A6E0636CF54FA9AB50C06292924D1 Accuracy: -m0
  Conclusion: CDDA 100%
  Signature: EE07A839F8E2518C44793CDC4B6D12B13BC5E5CA
FILE: 05. Dark Details.flac
  Size: 25377486 Hash: 11065E3DD2A5D70D26A08FE25A77F50C Accuracy: -m0
  Conclusion: CDDA 100%
  Signature: D805204C01BAAAF335BADCAF7D3C2FA28A322BFD
FILE: 04. Intermittent.flac
  Size: 20374456 Hash: E0A172F800F28F3CC7C8D03C761437F9 Accuracy: -m0
  Conclusion: CDDA 100%
  Signature: 0AC9549D2331FA1ED293C9DDFF0E3231B4AD7210
FILE: 03. North To South.flac
  Size: 20761123 Hash: 8F2EC9A2D0441E41FC700383344D4542 Accuracy: -m0
  Conclusion: CDDA 100%
  Signature: 37180283AE91DA86D4E02AFB6137999D25F5933D
FILE: 02. New Ground.flac
  Size: 35414307 Hash: 4863147FBFA92674E480F44C61BC25C0 Accuracy: -m0
  Conclusion: CDDA 100%
  Signature: 9BDA9C8D386AA3395F4EC2FA0780E25144535EF9
FILE: 01. Signature.flac
  Size: 1981286 Hash: 6F1ABAC2812D033EDD73553064C1CD02 Accuracy: -m0
  Conclusion: MPEG 90%
  Signature: C780D0205432D82650EE979A335A0A55C9411FF8

 
#77Год выпуска: 2011
Продолжительность: 00:37:04
Треклист:

01. Submission (04:50)
02. Posers (05:08)
03. Bad Wires (07:21)
04. We Stay Together (Part One) (06:36)
05. Cherry Eye (07:33)
06. Cracked (05:36)
Код: Выделить всё
-----------------------

DON'T MODIFY THIS FILE

-----------------------

PERFORMER: auCDtect Task Manager, ver. 1.5.1RC6 build 1.5.1.7
Copyright (c) 2008-2010 y-soft. All rights reserved
[url=http://y-soft.org]http://y-soft.org[/url]

ANALYZER: auCDtect: CD records authenticity detector, version 0.8.2
Copyright (c) 2004 Oleg Berngardt. All rights reserved.
Copyright (c) 2004 Alexander Djourik. All rights reserved.

FILE: 06. Cracked.flac
  Size: 30243180 Hash: 32B1D2B8F7AF4F75702D2FA2D63B4DD0 Accuracy: -m0
  Conclusion: CDDA 100%
  Signature: 629A564D2539C08B9C80740C192AEFC7DBD42528
FILE: 05. Cherry Eye.flac
  Size: 36188222 Hash: E7001CCD799576A4823D1CA69208BF17 Accuracy: -m0
  Conclusion: CDDA 100%
  Signature: DFE8CD73930207C7162467131AAEF181BAC04270
FILE: 04. We Stay Together (Part One).flac
  Size: 28406749 Hash: 7941B5887C730896D06EAC2ED85D291F Accuracy: -m0
  Conclusion: CDDA 100%
  Signature: AFEEA1DE46CCC86928D9A461BF59E46769C844B2
FILE: 03. Bad Wires.flac
  Size: 45306466 Hash: 7CCE679E1D9961B3C76DE2931EF7DFDF Accuracy: -m0
  Conclusion: CDDA 100%
  Signature: FB6F98E57693EA9F49039F3DF70A84FAD96BB23B
FILE: 02. Posers.flac
  Size: 25983041 Hash: 05E9C830596F1AE37471FCC7EAC95CFD Accuracy: -m0
  Conclusion: CDDA 100%
  Signature: C0749168100C9982D437C57B3EBC23CEDD8D5F86
FILE: 01. Submission.flac
  Size: 31538211 Hash: 623DA55F75DDC5F351825A58209CE6B5 Accuracy: -m0
  Conclusion: CDDA 100%
  Signature: 71DA1F0A4FEC6EFEF1EE0CE049D0B6A9A7993314

 
Время раздачи: 12/7
 
Не забывайте говорить Спасибо. Не уходите с раздачи!   
Торрент: Зарегистрирован [08 май 2016, 17:09] Скачать торрент
Скачать торрент
[ Размер 30.12 КБ / Просмотров 56 ]
Статус:
Проверен
 
.torrent скачан: 2 раз
Хэш: 0e5ef0c1dd9aa968eb241d7eeaf5a8ff97e0bd41
Размер: 2.88 ГБ (3 089 354 430 байт)
Стать Автором раздачи
 
 
Раздал: 100 ГБ
Скачал: 0 байт
Ратио: Seed.
Сообщения: 111724
Зарегистрирован: 09 апр 2015, 22:31


  • Похожие торренты
    Ответы
    Просмотры
    Последнее сообщение

Вернуться в House, Techno, Electro, Minimal (транзит Lossless)

Ресурс не предоставляет электронные версии произведений, а занимается лишь коллекционированием и каталогизацией ссылок, присылаемых и публикуемых на форуме нашими читателями. Если вы являетесь правообладателем какого-либо представленного материала и не желаете чтобы ссылка на него находилась в нашем каталоге, свяжитесь с нами и мы незамедлительно удалим её. Файлы для обмена на трекере предоставлены пользователями сайта, и администрация не несёт ответственности за их содержание. Просьба не заливать файлы, защищенные авторскими правами, а также файлы нелегального содержания!
cron