100 / Сотня / The 100 (2016) WEB-DL [H.264] (сезон 3, серии 1-14 из 16) LostFilm [MP4|1280x720]

 
 Статистика раздачи 
Размер: 17.34 ГБ   |  Зарегистрирован: 08 май 2016, 01:30   |   .torrent скачан: 0 раз
Сидеров: 1  [ 0 байт/сек ]     Личеров: 0  [ 0 байт/сек ]  
  

100 / Сотня / The 100 (2016) WEB-DL [H.264] (сезон 3, серии 1-14 из 16) LostFilm [MP4|1280x720]

Сообщение explosiveone » 08 май 2016, 01:30

100 / Сотня / The 100 (2016) WEB-DL 720p (сезон 3, серии 1-14 из 16) LostFilm

«Survival isn't who you are. It's who you become»
Производство: США
Жанр: Фантастика, Драма, Приключения

Режиссер: Дин Уайт, Джон Беринг, Милан Чейлов
Актеры: Элиза Тейлор-Коттер, Мари Авгеропулос, Сачин Сахель, Линдси Морган, Женевьев Бюкнер, Ричард Хэрмон, Джарод Джозеф, Челси Рейст, Крис Браунинг, Джош Ссеттуба и др.

Описание:
События в сериале начинают разворачиваться по прошествии девяносто семи лет после того как всю цивилизацию уничтожила страшная атомная война. Высоко в космосе на орбите Земли летает большой космический корабль, именно здесь находятся те, кто выжил после страшной катастрофы. Они единственные кто пережил этот ужасный катаклизм который устроило человечество. Именно с этого последнего пристанища людей на Землю отправляют космический челнок на котором находятся сто малолетних преступников…



Релиз от: HDCLUB
Продолжительность: ~ 00:43:00 серия
Качество видео: WEB-DL 720p
Перевод: Многоголосый закадровый, профессиональный - LostFilm

Видео: AVC/H.264, 1280x718 (16:9), ~3913 Кбит/сек
Аудио: AAC, 2 канала, 192 Кбит/сек - русский (многоголосый закадровый)
Код:
Код: Выделить всё
Полное имя                               : D:\The_Hundred_s3_WEB-DL720p_x264_LostFilm_[NNM-CLUB]\The.100.S03E01.720p.WEB-DL.rus.LostFilm.mp4
Формат                                   : MPEG-4
Профиль формата                          : Base Media
Идентификатор кодека                     : isom
Размер файла                             : 1,22 Гбайт
Продолжительность                        : 42 м.
Общий поток                              : 4111 Кбит/сек
Программа кодирования                    : XviD4PSP 7.0.129

Видео
Идентификатор                            : 1
Формат                                   : AVC
Формат/Информация                        : Advanced Video Codec
Профиль формата                          :
Параметр CABAC формата                   : Нет
Параметр ReFrames формата                : 2 кадра
Параметр GOP формата                     : M=2, N=90
Идентификатор кодека                     : avc1
Идентификатор кодека/Информация          : Advanced Video Coding
Продолжительность                        : 42 м.
Битрейт                                  : 3913 Кбит/сек
Ширина                                   : 1280 пикселей
Высота                                   : 718 пикселей
Соотношение сторон                       : 16:9
Режим частоты кадров                     : Переменный
Частота кадров                           : 23,976 кадра/сек
Минимальная частота кадров               : 23,810 кадра/сек
Максимальная частота кадров              : 24,390 кадра/сек
Цветовое пространство                    : YUV
Субдискретизация насыщенности            : 4:2:0
Битовая глубина                          : 8 бит
Тип развёртки                            : Прогрессивная
Бит/(Пиксели*Кадры)                      : 0.178
Размер потока                            : 1,16 Гбайт (95%)
Язык                                     : English
Основные цвета                           : BT.709
Характеристики трансфера                 : BT.709
Коэффициенты матрицы                     : BT.709

Аудио
Идентификатор                            : 2
Формат                                   : AAC
Формат/Информация                        : Advanced Audio Codec
Профиль формата                          : LC
Идентификатор кодека                     : 40
Продолжительность                        : 42 м.
Вид битрейта                             : Постоянный
Битрейт                                  : 192 Кбит/сек
Каналы                                   : 2 канала
Расположение каналов                     : Front: L R
Частота                                  : 48,0 КГц
Метод сжатия                             : С потерями
Размер потока                            : 58,3 Мбайт (5%)
Заголовок                                : LostFilm
Язык                                     : Russian
01 - Ван'эда, Часть 1 / Wanheda: Part 1
02 - Ван'эда. Часть 2 / Wanheda: Part 2
03 - Всяк сюда входящий / Ye Who Enter Here
04 - Следи за престолом / Watch the Thrones
05 - Акелдама / Hakeldama
06 - Жестокая жатва / Bitter Harvest
07 - Тринадцать / Thirteen
08 - Условия и положения / Terms and Conditions
09 - Украденное пламя / Stealing Fire
10 - Падший / Fallen
11 - Никогда / Nevermore
12 - Демоны / Demons
13 - Присоединись или умри / Join or Die
14 - Багряный рассвет / Red Sky at Morning
Внимание! Раздача ведётся путём добавления новых серий; при каждом добавлении создаётся новый торрент.
Чтобы начать докачку новой серии, пользователям необходимо сделать следующее:
1. Остановить скачивание;
2. Удалить старый торрент у себя из клиента (старые серии удалять не надо);
3. Скачать новый торрент и запустить его у себя в клиенте вместо старого, при этом указать клиенту путь в старую папку куда и должно происходить скачивание новых серий. Ваш клиент при этом должен произвести хеширование (проверку) старой папки и будет докачивать только те серии, которых у вас ещё нет. Старые серии при этом не удаляются, а продолжают раздаваться! Eсли вы уже удалили старые серии, то предотвратить повторную закачку старых серий можно, отжав галочку в соответствующих местах при запуске нового торрента.

Скриншоты:




Время раздачи:
24/7 - круглосуточно
(до первых 5-ти сидов - потом по возможности)
 
Не забывайте говорить Спасибо. Не уходите с раздачи!   
Торрент: Зарегистрирован [08 май 2016, 01:30] Для скачивания .torrent
необходима регистрация
Или скачать с помощью
MediaGet
Статус:
Проверен
 
.torrent скачан: 0 раз
Хэш: 5522471d653fb92b3764e0e497c636a2743504c3
Размер: 17.34 ГБ (18 619 480 452 байт)
Стать Автором раздачи
 
 
Раздал: 100 ГБ
Скачал: 0 байт
Ратио: Seed.
Сообщения: 94048
Зарегистрирован: 09 апр 2015, 22:31


  • Похожие торренты
    Ответы
    Просмотры
    Последнее сообщение

Вернуться в Видео для мобильных устройств

Ресурс не предоставляет электронные версии произведений, а занимается лишь коллекционированием и каталогизацией ссылок, присылаемых и публикуемых на форуме нашими читателями. Если вы являетесь правообладателем какого-либо представленного материала и не желаете чтобы ссылка на него находилась в нашем каталоге, свяжитесь с нами и мы незамедлительно удалим её. Файлы для обмена на трекере предоставлены пользователями сайта, и администрация не несёт ответственности за их содержание. Просьба не заливать файлы, защищенные авторскими правами, а также файлы нелегального содержания!
cron