Wax Audio - Mashopolos (2016) WEBRip

 
 Статистика раздачи 
Размер: 1.59 ГБ   |  Зарегистрирован: 01 май 2016, 18:22   |   .torrent скачан: 1 раз
Сидеров: 1  [ 0 байт/сек ]     Личеров: 0  [ 0 байт/сек ]  
  

Wax Audio - Mashopolos (2016) WEBRip

Сообщение explosiveone » 01 май 2016, 18:22

Wax Audio - Mashopolos (2016) WEBRip

Жанр: Mix, Rock, Pop, Metall, Glam Rock
Год выпуска: 2016

Описание:
Отличные аудиомиксы из композиций разных рок- и поп-групп (Led Zeppelin vs. Black Sabbath, Metallica vs. AC/DC, Metallica vs. Michael Jackson, Bee Gees vs. Pink Floyd и т.д.). Это не разные исполнители, а парень его зовут Артём он из Сидней (Австралия) делает ремиксы на известные всем треки, начал Wax Audio в 2003 г. в рамках антивоенного движения, выпуская явно политическую работу (пюре СМИ трилогии). С тех пор начал делать больше “обычных” поп-mashup (Mashopolos серии), а также альбом, построенный полностью из образцов известных групп...

Треклист:
01. MASHOPOLOS - The Movie [01:48]
02. Lady Judas (Lady Gaga vs Judas Priest ) [04:13]
03. Maiden Goes To Bollywood (Iron Maiden vs Dhoom 2) [04:07]
04. Master Of Doin' It (Metallica + Herbie Hancock) [04:40]
05. Panama Beat (Van Halen + Michael Jackson) [04:07]
06. Sad But Superstitious (Stevie Wonder vs Metallica ) [04:39]
07. South Of The Grapevine (Slayer + Marvin Gaye ) [03:22]
08. Stayin' Alive In The Wall (Pink Floyd vs Bee Gees) [03:22]
09. The Final Teen Spirit (Nirvana vs Europe) [05:11]
10. Thunder Busters (AC DC vs Ghostbusters ) [03:44]
11. Careless Rebel (George Michael + Billy Idol ) [04:21]
12. Van Halen, New Order, Duran Duran, Tears For Fears, 80's [04:40]
13. Whole Lotta Sabbath (Led Zeppelin vs Black Sabbath) [03:23]
14. Metallica - Panjabi MC [04:06]
15. Enter You (Bryan Adams vs Metallica ) [03:40]
16. Chemical Diver (Chemical Brothers + Dio) [04:16]
17. Prince- Thought it was time.. [04:25]
18. Breathe & Destroy - Metallica and The Prodigy [04:08]
19. Iron Maiden and The Crystal Method [03:53]
20. Sad But Superstitious Metallica & Stevie Wonder [04:42]
21. The Beatles & Massive Attack - Golden Teardrops [03:40]
22. The Beatles - With Motley Crue [03:29]
23. The Devil’s Highway (Van Halen + ACDC) [03:28]
24. Tori Amos,PJ Harvey,Bjork,Massive Attack - Dissolved By The Water All These Years [04:17]
25. A Hotel Full of Secrets (The Eagles + Pink Floyd) [04:44]
Продолжительность: 01:40:38
Качество видео: WEBRip

Видео: AVC/H.264, 1280x720, ~1021 Kbps
Аудио: AAC, 2 ch, 48,0-152 Kbps, VBR
Код:
Код: Выделить всё
Общее
Полное имя                               : F:\Клипы\Rock\Wax Audio - Mashopolos (2016)\01. MASHOPOLOS - The Movie.mp4
Формат                                   : MPEG-4
Профиль формата                          : Base Media
Идентификатор кодека                     : isom (isom/iso2/avc1/mp41)
Размер файла                             : 13,5 Мбайт
Продолжительность                        : 1 м. 48 с.
Общий поток                              : 1042 Кбит/сек
Название фильма                          : 1014365938606749
Программа кодирования                    : Lavf56.4.101

Видео
Идентификатор                            : 1
Формат                                   : AVC
Формат/Информация                        : Advanced Video Codec
Профиль формата                          :
Параметр CABAC формата                   : Да
Параметр ReFrames формата                : 5 кадров
Идентификатор кодека                     : avc1
Идентификатор кодека/Информация          : Advanced Video Coding
Продолжительность                        : 1 м. 48 с.
Битрейт                                  : 1021 Кбит/сек
Ширина                                   : 1280 пикселей
Высота                                   : 720 пикселей
Соотношение сторон                       : 16:9
Режим частоты кадров                     : Постоянный
Частота кадров                           : 25,000 кадров/сек
Цветовое пространство                    : YUV
Субдискретизация насыщенности            : 4:2:0
Битовая глубина                          : 8 бит
Тип развёртки                            : Прогрессивная
Бит/(Пиксели*Кадры)                      : 0.044
Размер потока                            : 13,2 Мбайт (98%)
Библиотека кодирования                   : x264 core 142
Настройки программы                      :

Аудио
Идентификатор                            : 2
Формат                                   : AAC
Формат/Информация                        : Advanced Audio Codec
Профиль формата                          : HE-AACv2 / HE-AAC / LC
Идентификатор кодека                     : 40
Продолжительность                        : 1 м. 48 с.
Duration_LastFrame                       : 147 мс.
Вид битрейта                             : Постоянный
Битрейт                                  : 20,0 Кбит/сек
Каналы                                   : 2 канала / 1 канал / 1 канал
Расположение каналов                     : Front: L R / Front: C / Front: C
Частота                                  : 48,0 КГц / 48,0 КГц / 24,0 КГц
Частота кадров                           : 23,438 кадра/сек (1024 spf)
Метод сжатия                             : С потерями
Размер потока                            : 264 Кбайт (2%)
Язык                                     : English
Default                                  : Да
Alternate group                          : 1

Общее
Полное имя                               : F:\Клипы\Rock\Wax Audio - Mashopolos (2016)\02. Lady Judas (Lady Gaga vs Judas Priest ).mp4
Формат                                   : MPEG-4
Профиль формата                          : Base Media
Идентификатор кодека                     : isom (isom/iso2/avc1/mp41)
Размер файла                             : 112 Мбайт
Продолжительность                        : 4 м. 13 с.
Режим общего битрейта                    : Переменный
Общий поток                              : 3690 Кбит/сек
Программа кодирования                    : Lavf56.30.100

Видео
Идентификатор                            : 1
Формат                                   : AVC
Формат/Информация                        : Advanced Video Codec
Профиль формата                          :
Параметр CABAC формата                   : Да
Параметр ReFrames формата                : 4 кадра
Идентификатор кодека                     : avc1
Идентификатор кодека/Информация          : Advanced Video Coding
Продолжительность                        : 4 м. 13 с.
Битрейт                                  : 3530 Кбит/сек
Ширина                                   : 1280 пикселей
Высота                                   : 720 пикселей
Соотношение сторон                       : 16:9
Режим частоты кадров                     : Постоянный
Частота кадров                           : 25,000 кадров/сек
Цветовое пространство                    : YUV
Субдискретизация насыщенности            : 4:2:0
Битовая глубина                          : 8 бит
Тип развёртки                            : Прогрессивная
Бит/(Пиксели*Кадры)                      : 0.153
Размер потока                            : 107 Мбайт (96%)
Библиотека кодирования                   : x264 core 146
Настройки программы                      :
Аудио
Идентификатор                            : 2
Формат                                   : AAC
Формат/Информация                        : Advanced Audio Codec
Профиль формата                          : LC
Идентификатор кодека                     : 40
Продолжительность                        : 4 м. 13 с.
Вид битрейта                             : Переменный
Битрейт                                  : 152 Кбит/сек
Максимальный битрейт                     : 192 Кбит/сек
Каналы                                   : 2 канала
Расположение каналов                     : Front: L R
Частота                                  : 44,1 КГц
Частота кадров                           : 43,066 кадра/сек (1024 spf)
Метод сжатия                             : С потерями
Размер потока                            : 4,60 Мбайт (4%)
Default                                  : Да
Alternate group                          : 1

Общее
Полное имя                               : F:\Клипы\Rock\Wax Audio - Mashopolos (2016)\03. Maiden Goes To Bollywood (Iron Maiden vs Dhoom 2).mp4
Формат                                   : MPEG-4
Профиль формата                          : Base Media
Идентификатор кодека                     : isom (isom/iso2/avc1/mp41)
Размер файла                             : 121 Мбайт
Продолжительность                        : 4 м. 7 с.
Режим общего битрейта                    : Переменный
Общий поток                              : 4096 Кбит/сек
Программа кодирования                    : Lavf56.30.100

Видео
Идентификатор                            : 1
Формат                                   : AVC
Формат/Информация                        : Advanced Video Codec
Профиль формата                          :
Параметр CABAC формата                   : Да
Параметр ReFrames формата                : 4 кадра
Идентификатор кодека                     : avc1
Идентификатор кодека/Информация          : Advanced Video Coding
Продолжительность                        : 4 м. 7 с.
Битрейт                                  : 3941 Кбит/сек
Ширина                                   : 1280 пикселей
Высота                                   : 720 пикселей
Соотношение сторон                       : 16:9
Режим частоты кадров                     : Постоянный
Частота кадров                           : 25,000 кадров/сек
Цветовое пространство                    : YUV
Субдискретизация насыщенности            : 4:2:0
Битовая глубина                          : 8 бит
Тип развёртки                            : Прогрессивная
Бит/(Пиксели*Кадры)                      : 0.171
Размер потока                            : 116 Мбайт (96%)
Библиотека кодирования                   : x264 core 146
Настройки программы                      :

Аудио
Идентификатор                            : 2
Формат                                   : AAC
Формат/Информация                        : Advanced Audio Codec
Профиль формата                          : LC
Идентификатор кодека                     : 40
Продолжительность                        : 4 м. 7 с.
Вид битрейта                             : Переменный
Битрейт                                  : 149 Кбит/сек
Максимальный битрейт                     : 192 Кбит/сек
Каналы                                   : 2 канала
Расположение каналов                     : Front: L R
Частота                                  : 44,1 КГц
Частота кадров                           : 43,066 кадра/сек (1024 spf)
Метод сжатия                             : С потерями
Размер потока                            : 4,39 Мбайт (4%)
Default                                  : Да
Alternate group                          : 1

Общее
Полное имя                               : F:\Клипы\Rock\Wax Audio - Mashopolos (2016)\04. Master Of Doin' It (Metallica + Herbie Hancock).mp4
Формат                                   : MPEG-4
Профиль формата                          : Base Media
Идентификатор кодека                     : isom (isom/iso2/avc1/mp41)
Размер файла                             : 92,0 Мбайт
Продолжительность                        : 4 м. 40 с.
Режим общего битрейта                    : Переменный
Общий поток                              : 2748 Кбит/сек
Программа кодирования                    : Lavf56.30.100

Видео
Идентификатор                            : 1
Формат                                   : AVC
Формат/Информация                        : Advanced Video Codec
Профиль формата                          :
Параметр CABAC формата                   : Да
Параметр ReFrames формата                : 4 кадра
Идентификатор кодека                     : avc1
Идентификатор кодека/Информация          : Advanced Video Coding
Продолжительность                        : 4 м. 40 с.
Битрейт                                  : 2591 Кбит/сек
Ширина                                   : 1280 пикселей
Высота                                   : 720 пикселей
Соотношение сторон                       : 16:9
Режим частоты кадров                     : Постоянный
Частота кадров                           : 25,000 кадров/сек
Цветовое пространство                    : YUV
Субдискретизация насыщенности            : 4:2:0
Битовая глубина                          : 8 бит
Тип развёртки                            : Прогрессивная
Бит/(Пиксели*Кадры)                      : 0.112
Размер потока                            : 86,7 Мбайт (94%)
Библиотека кодирования                   : x264 core 146
Настройки программы                      :
Идентификатор                            : 2
Формат                                   : AAC
Формат/Информация                        : Advanced Audio Codec
Профиль формата                          : LC
Идентификатор кодека                     : 40
Продолжительность                        : 4 м. 40 с.
Вид битрейта                             : Переменный
Битрейт                                  : 151 Кбит/сек
Максимальный битрейт                     : 192 Кбит/сек
Каналы                                   : 2 канала
Расположение каналов                     : Front: L R
Частота                                  : 44,1 КГц
Частота кадров                           : 43,066 кадра/сек (1024 spf)
Метод сжатия                             : С потерями
Размер потока                            : 5,07 Мбайт (6%)
Default                                  : Да
Alternate group                          : 1

Общее
Полное имя                               : F:\Клипы\Rock\Wax Audio - Mashopolos (2016)\05. Panama Beat (Van Halen + Michael Jackson ).mp4
Формат                                   : MPEG-4
Профиль формата                          : Base Media
Идентификатор кодека                     : isom (isom/iso2/avc1/mp41)
Размер файла                             : 97,7 Мбайт
Продолжительность                        : 4 м. 7 с.
Режим общего битрейта                    : Переменный
Общий поток                              : 3315 Кбит/сек
Программа кодирования                    : Lavf56.30.100

Видео
Идентификатор                            : 1
Формат                                   : AVC
Формат/Информация                        : Advanced Video Codec
Профиль формата                          :
Параметр CABAC формата                   : Да
Параметр ReFrames формата                : 4 кадра
Идентификатор кодека                     : avc1
Идентификатор кодека/Информация          : Advanced Video Coding
Продолжительность                        : 4 м. 7 с.
Битрейт                                  : 3159 Кбит/сек
Ширина                                   : 1280 пикселей
Высота                                   : 720 пикселей
Соотношение сторон                       : 16:9
Режим частоты кадров                     : Постоянный
Частота кадров                           : 25,000 кадров/сек
Цветовое пространство                    : YUV
Субдискретизация насыщенности            : 4:2:0
Битовая глубина                          : 8 бит
Тип развёртки                            : Прогрессивная
Бит/(Пиксели*Кадры)                      : 0.137
Размер потока                            : 93,0 Мбайт (95%)
Библиотека кодирования                   : x264 core 146
Настройки программы                      :
Аудио
Идентификатор                            : 2
Формат                                   : AAC
Формат/Информация                        : Advanced Audio Codec
Профиль формата                          : LC
Идентификатор кодека                     : 40
Продолжительность                        : 4 м. 7 с.
Вид битрейта                             : Переменный
Битрейт                                  : 151 Кбит/сек
Максимальный битрейт                     : 192 Кбит/сек
Каналы                                   : 2 канала
Расположение каналов                     : Front: L R
Частота                                  : 44,1 КГц
Частота кадров                           : 43,066 кадра/сек (1024 spf)
Метод сжатия                             : С потерями
Размер потока                            : 4,46 Мбайт (5%)
Default                                  : Да
Alternate group                          : 1

Общее
Полное имя                               : F:\Клипы\Rock\Wax Audio - Mashopolos (2016)\06. Sad But Superstitious (Stevie Wonder vs Metallica ).mp4
Формат                                   : MPEG-4
Профиль формата                          : Base Media
Идентификатор кодека                     : isom (isom/iso2/avc1/mp41)
Размер файла                             : 98,7 Мбайт
Продолжительность                        : 4 м. 39 с.
Режим общего битрейта                    : Переменный
Общий поток                              : 2965 Кбит/сек
Программа кодирования                    : Lavf56.30.100

Видео
Идентификатор                            : 1
Формат                                   : AVC
Формат/Информация                        : Advanced Video Codec
Профиль формата                          :
Параметр CABAC формата                   : Да
Параметр ReFrames формата                : 4 кадра
Идентификатор кодека                     : avc1
Идентификатор кодека/Информация          : Advanced Video Coding
Продолжительность                        : 4 м. 39 с.
Битрейт                                  : 2806 Кбит/сек
Ширина                                   : 1280 пикселей
Высота                                   : 720 пикселей
Соотношение сторон                       : 16:9
Режим частоты кадров                     : Постоянный
Частота кадров                           : 25,000 кадров/сек
Цветовое пространство                    : YUV
Субдискретизация насыщенности            : 4:2:0
Битовая глубина                          : 8 бит
Тип развёртки                            : Прогрессивная
Бит/(Пиксели*Кадры)                      : 0.122
Размер потока                            : 93,4 Мбайт (95%)
Библиотека кодирования                   : x264 core 146
Настройки программы                      :

Аудио
Идентификатор                            : 2
Формат                                   : AAC
Формат/Информация                        : Advanced Audio Codec
Профиль формата                          : LC
Идентификатор кодека                     : 40
Продолжительность                        : 4 м. 39 с.
Вид битрейта                             : Переменный
Битрейт                                  : 151 Кбит/сек
Максимальный битрейт                     : 192 Кбит/сек
Каналы                                   : 2 канала
Расположение каналов                     : Front: L R
Частота                                  : 44,1 КГц
Частота кадров                           : 43,066 кадра/сек (1024 spf)
Метод сжатия                             : С потерями
Размер потока                            : 5,03 Мбайт (5%)
Default                                  : Да
Alternate group                          : 1

Общее
Полное имя                               : F:\Клипы\Rock\Wax Audio - Mashopolos (2016)\07. South Of The Grapevine (Slayer + Marvin Gaye ).mp4
Формат                                   : MPEG-4
Профиль формата                          : Base Media
Идентификатор кодека                     : isom (isom/iso2/avc1/mp41)
Размер файла                             : 87,6 Мбайт
Продолжительность                        : 3 м. 22 с.
Режим общего битрейта                    : Переменный
Общий поток                              : 3628 Кбит/сек
Программа кодирования                    : Lavf56.30.100

Видео
Идентификатор                            : 1
Формат                                   : AVC
Формат/Информация                        : Advanced Video Codec
Профиль формата                          :
Параметр CABAC формата                   : Да
Параметр ReFrames формата                : 4 кадра
Идентификатор кодека                     : avc1
Идентификатор кодека/Информация          : Advanced Video Coding
Продолжительность                        : 3 м. 22 с.
Битрейт                                  : 3471 Кбит/сек
Ширина                                   : 1280 пикселей
Высота                                   : 720 пикселей
Соотношение сторон                       : 16:9
Режим частоты кадров                     : Постоянный
Частота кадров                           : 25,000 кадров/сек
Цветовое пространство                    : YUV
Субдискретизация насыщенности            : 4:2:0
Битовая глубина                          : 8 бит
Тип развёртки                            : Прогрессивная
Бит/(Пиксели*Кадры)                      : 0.151
Размер потока                            : 83,8 Мбайт (96%)
Библиотека кодирования                   : x264 core 146
Настройки программы                      :
Аудио
Идентификатор                            : 2
Формат                                   : AAC
Формат/Информация                        : Advanced Audio Codec
Профиль формата                          : LC
Идентификатор кодека                     : 40
Продолжительность                        : 3 м. 22 с.
Вид битрейта                             : Переменный
Битрейт                                  : 152 Кбит/сек
Максимальный битрейт                     : 192 Кбит/сек
Каналы                                   : 2 канала
Расположение каналов                     : Front: L R
Частота                                  : 44,1 КГц
Частота кадров                           : 43,066 кадра/сек (1024 spf)
Метод сжатия                             : С потерями
Размер потока                            : 3,66 Мбайт (4%)
Default                                  : Да
Alternate group                          : 1

Общее
Полное имя                               : F:\Клипы\Rock\Wax Audio - Mashopolos (2016)\08. Stayin' Alive In The Wall (Pink Floyd vs Bee Gees).mp4
Формат                                   : MPEG-4
Профиль формата                          : Base Media
Идентификатор кодека                     : isom (isom/iso2/avc1/mp41)
Размер файла                             : 69,1 Мбайт
Продолжительность                        : 3 м. 22 с.
Режим общего битрейта                    : Переменный
Общий поток                              : 2868 Кбит/сек
Программа кодирования                    : Lavf56.30.100

Видео
Идентификатор                            : 1
Формат                                   : AVC
Формат/Информация                        : Advanced Video Codec
Профиль формата                          :
Параметр CABAC формата                   : Да
Параметр ReFrames формата                : 4 кадра
Идентификатор кодека                     : avc1
Идентификатор кодека/Информация          : Advanced Video Coding
Продолжительность                        : 3 м. 22 с.
Битрейт                                  : 2714 Кбит/сек
Ширина                                   : 1280 пикселей
Высота                                   : 720 пикселей
Соотношение сторон                       : 16:9
Режим частоты кадров                     : Постоянный
Частота кадров                           : 25,000 кадров/сек
Цветовое пространство                    : YUV
Субдискретизация насыщенности            : 4:2:0
Битовая глубина                          : 8 бит
Тип развёртки                            : Прогрессивная
Бит/(Пиксели*Кадры)                      : 0.118
Размер потока                            : 65,4 Мбайт (95%)
Библиотека кодирования                   : x264 core 146
Настройки программы                      :

Аудио
Идентификатор                            : 2
Формат                                   : AAC
Формат/Информация                        : Advanced Audio Codec
Профиль формата                          : LC
Идентификатор кодека                     : 40
Продолжительность                        : 3 м. 22 с.
Вид битрейта                             : Переменный
Битрейт                                  : 148 Кбит/сек
Максимальный битрейт                     : 192 Кбит/сек
Каналы                                   : 2 канала
Расположение каналов                     : Front: L R
Частота                                  : 44,1 КГц
Частота кадров                           : 43,066 кадра/сек (1024 spf)
Метод сжатия                             : С потерями
Размер потока                            : 3,56 Мбайт (5%)
Default                                  : Да
Alternate group                          : 1

Общее
Полное имя                               : F:\Клипы\Rock\Wax Audio - Mashopolos (2016)\09. The Final Teen Spirit (Nirvana vs Europe).mp4
Формат                                   : MPEG-4
Профиль формата                          : Base Media
Идентификатор кодека                     : isom (isom/iso2/avc1/mp41)
Размер файла                             : 120 Мбайт
Продолжительность                        : 5 м. 11 с.
Режим общего битрейта                    : Переменный
Общий поток                              : 3234 Кбит/сек
Программа кодирования                    : Lavf56.30.100

Видео
Идентификатор                            : 1
Формат                                   : AVC
Формат/Информация                        : Advanced Video Codec
Профиль формата                          :
Параметр CABAC формата                   : Да
Параметр ReFrames формата                : 4 кадра
Идентификатор кодека                     : avc1
Идентификатор кодека/Информация          : Advanced Video Coding
Продолжительность                        : 5 м. 11 с.
Битрейт                                  : 3078 Кбит/сек
Ширина                                   : 1280 пикселей
Высота                                   : 720 пикселей
Соотношение сторон                       : 16:9
Режим частоты кадров                     : Постоянный
Частота кадров                           : 25,000 кадров/сек
Цветовое пространство                    : YUV
Субдискретизация насыщенности            : 4:2:0
Битовая глубина                          : 8 бит
Тип развёртки                            : Прогрессивная
Бит/(Пиксели*Кадры)                      : 0.134
Размер потока                            : 114 Мбайт (95%)
Библиотека кодирования                   : x264 core 146
Настройки программы                      :

Аудио
Идентификатор                            : 2
Формат                                   : AAC
Формат/Информация                        : Advanced Audio Codec
Профиль формата                          : LC
Идентификатор кодека                     : 40
Продолжительность                        : 5 м. 11 с.
Вид битрейта                             : Переменный
Битрейт                                  : 151 Кбит/сек
Максимальный битрейт                     : 192 Кбит/сек
Каналы                                   : 2 канала
Расположение каналов                     : Front: L R
Частота                                  : 44,1 КГц
Частота кадров                           : 43,066 кадра/сек (1024 spf)
Метод сжатия                             : С потерями
Размер потока                            : 5,60 Мбайт (5%)
Default                                  : Да
Alternate group                          : 1

Общее
Полное имя                               : F:\Клипы\Rock\Wax Audio - Mashopolos (2016)\10. Thunder Busters (AC DC vs Ghostbusters ).mp4
Формат                                   : MPEG-4
Профиль формата                          : Base Media
Идентификатор кодека                     : isom (isom/iso2/avc1/mp41)
Размер файла                             : 94,0 Мбайт
Продолжительность                        : 3 м. 44 с.
Режим общего битрейта                    : Переменный
Общий поток                              : 3514 Кбит/сек
Программа кодирования                    : Lavf56.30.100

Видео
Идентификатор                            : 1
Формат                                   : AVC
Формат/Информация                        : Advanced Video Codec
Профиль формата                          :
Параметр CABAC формата                   : Да
Параметр ReFrames формата                : 4 кадра
Идентификатор кодека                     : avc1
Идентификатор кодека/Информация          : Advanced Video Coding
Продолжительность                        : 3 м. 44 с.
Битрейт                                  : 3354 Кбит/сек
Ширина                                   : 1280 пикселей
Высота                                   : 720 пикселей
Соотношение сторон                       : 16:9
Режим частоты кадров                     : Постоянный
Частота кадров                           : 29,917 кадров/сек
Цветовое пространство                    : YUV
Субдискретизация насыщенности            : 4:2:0
Битовая глубина                          : 8 бит
Тип развёртки                            : Прогрессивная
Бит/(Пиксели*Кадры)                      : 0.122
Размер потока                            : 89,7 Мбайт (95%)
Библиотека кодирования                   : x264 core 146
Настройки программы                      :

Аудио
Идентификатор                            : 2
Формат                                   : AAC
Формат/Информация                        : Advanced Audio Codec
Профиль формата                          : LC
Идентификатор кодека                     : 40
Продолжительность                        : 3 м. 44 с.
Вид битрейта                             : Переменный
Битрейт                                  : 152 Кбит/сек
Максимальный битрейт                     : 192 Кбит/сек
Каналы                                   : 2 канала
Расположение каналов                     : Front: L R
Частота                                  : 44,1 КГц
Частота кадров                           : 43,066 кадра/сек (1024 spf)
Метод сжатия                             : С потерями
Размер потока                            : 4,06 Мбайт (4%)
Default                                  : Да
Alternate group                          : 1

Общее
Полное имя                               : F:\Клипы\Rock\Wax Audio - Mashopolos (2016)\11. Careless Rebel (George Michael + Billy Idol ).mp4
Формат                                   : MPEG-4
Профиль формата                          : Base Media
Идентификатор кодека                     : isom (isom/iso2/avc1/mp41)
Размер файла                             : 84,3 Мбайт
Продолжительность                        : 4 м. 21 с.
Режим общего битрейта                    : Переменный
Общий поток                              : 2699 Кбит/сек
Программа кодирования                    : Lavf56.30.100

Видео
Идентификатор                            : 1
Формат                                   : AVC
Формат/Информация                        : Advanced Video Codec
Профиль формата                          :
Параметр CABAC формата                   : Да
Параметр ReFrames формата                : 4 кадра
Идентификатор кодека                     : avc1
Идентификатор кодека/Информация          : Advanced Video Coding
Продолжительность                        : 4 м. 21 с.
Битрейт                                  : 2543 Кбит/сек
Ширина                                   : 1280 пикселей
Высота                                   : 720 пикселей
Соотношение сторон                       : 16:9
Режим частоты кадров                     : Постоянный
Частота кадров                           : 23,976 (24000/1001) кадра/сек
Цветовое пространство                    : YUV
Субдискретизация насыщенности            : 4:2:0
Битовая глубина                          : 8 бит
Тип развёртки                            : Прогрессивная
Бит/(Пиксели*Кадры)                      : 0.115
Размер потока                            : 79,4 Мбайт (94%)
Библиотека кодирования                   : x264 core 146
Настройки программы                      :
Аудио
Идентификатор                            : 2
Формат                                   : AAC
Формат/Информация                        : Advanced Audio Codec
Профиль формата                          : LC
Идентификатор кодека                     : 40
Продолжительность                        : 4 м. 21 с.
Вид битрейта                             : Переменный
Битрейт                                  : 152 Кбит/сек
Максимальный битрейт                     : 192 Кбит/сек
Каналы                                   : 2 канала
Расположение каналов                     : Front: L R
Частота                                  : 44,1 КГц
Частота кадров                           : 43,066 кадра/сек (1024 spf)
Метод сжатия                             : С потерями
Размер потока                            : 4,73 Мбайт (6%)
Default                                  : Да
Alternate group                          : 1

Общее
Полное имя                               : F:\Клипы\Rock\Wax Audio - Mashopolos (2016)\12. Van Halen, New Order, Duran Duran, Tears For Fears, 80's.mp4
Формат                                   : MPEG-4
Профиль формата                          : Base Media
Идентификатор кодека                     : isom (isom/iso2/avc1/mp41)
Размер файла                             : 85,0 Мбайт
Продолжительность                        : 4 м. 40 с.
Режим общего битрейта                    : Переменный
Общий поток                              : 2539 Кбит/сек
Программа кодирования                    : Lavf56.30.100

Видео
Идентификатор                            : 1
Формат                                   : AVC
Формат/Информация                        : Advanced Video Codec
Профиль формата                          :
Параметр CABAC формата                   : Да
Параметр ReFrames формата                : 4 кадра
Идентификатор кодека                     : avc1
Идентификатор кодека/Информация          : Advanced Video Coding
Продолжительность                        : 4 м. 40 с.
Битрейт                                  : 2382 Кбит/сек
Ширина                                   : 1280 пикселей
Высота                                   : 720 пикселей
Соотношение сторон                       : 16:9
Режим частоты кадров                     : Постоянный
Частота кадров                           : 25,000 кадров/сек
Цветовое пространство                    : YUV
Субдискретизация насыщенности            : 4:2:0
Битовая глубина                          : 8 бит
Тип развёртки                            : Прогрессивная
Бит/(Пиксели*Кадры)                      : 0.103
Размер потока                            : 79,7 Мбайт (94%)
Библиотека кодирования                   : x264 core 146
Настройки программы                      :

Аудио
Идентификатор                            : 2
Формат                                   : AAC
Формат/Информация                        : Advanced Audio Codec
Профиль формата                          : LC
Идентификатор кодека                     : 40
Продолжительность                        : 4 м. 40 с.
Вид битрейта                             : Переменный
Битрейт                                  : 152 Кбит/сек
Максимальный битрейт                     : 192 Кбит/сек
Каналы                                   : 2 канала
Расположение каналов                     : Front: L R
Частота                                  : 44,1 КГц
Частота кадров                           : 43,066 кадра/сек (1024 spf)
Метод сжатия                             : С потерями
Размер потока                            : 5,08 Мбайт (6%)
Default                                  : Да
Alternate group                          : 1

Общее
Полное имя                               : F:\Клипы\Rock\Wax Audio - Mashopolos (2016)\13. Whole Lotta Sabbath (Led Zeppelin vs Black Sabbath).mp4
Формат                                   : MPEG-4
Профиль формата                          : Base Media
Идентификатор кодека                     : isom (isom/iso2/avc1/mp41)
Размер файла                             : 28,9 Мбайт
Продолжительность                        : 3 м. 23 с.
Общий поток                              : 1192 Кбит/сек
Название фильма                          : 13. Whole Lotta Sabbath (Led Zeppelin vs Black Sabbath)
Программа кодирования                    : Lavf56.4.101

Видео
Идентификатор                            : 1
Формат                                   : AVC
Формат/Информация                        : Advanced Video Codec
Профиль формата                          :
Параметр CABAC формата                   : Да
Параметр ReFrames формата                : 5 кадров
Идентификатор кодека                     : avc1
Идентификатор кодека/Информация          : Advanced Video Coding
Продолжительность                        : 3 м. 22 с.
Битрейт                                  : 1170 Кбит/сек
Ширина                                   : 1280 пикселей
Высота                                   : 720 пикселей
Соотношение сторон                       : 16:9
Режим частоты кадров                     : Постоянный
Частота кадров                           : 25,000 кадров/сек
Цветовое пространство                    : YUV
Субдискретизация насыщенности            : 4:2:0
Битовая глубина                          : 8 бит
Тип развёртки                            : Прогрессивная
Бит/(Пиксели*Кадры)                      : 0.051
Размер потока                            : 28,3 Мбайт (98%)
Библиотека кодирования                   : x264 core 142
Настройки программы                      :

Аудио
Идентификатор                            : 2
Формат                                   : AAC
Формат/Информация                        : Advanced Audio Codec
Профиль формата                          : HE-AACv2 / HE-AAC / LC
Идентификатор кодека                     : 40
Продолжительность                        : 3 м. 23 с.
Duration_LastFrame                       : 147 мс.
Вид битрейта                             : Постоянный
Битрейт                                  : 20,0 Кбит/сек
Каналы                                   : 2 канала / 1 канал / 1 канал
Расположение каналов                     : Front: L R / Front: C / Front: C
Частота                                  : 48,0 КГц / 48,0 КГц / 24,0 КГц
Частота кадров                           : 23,438 кадра/сек (1024 spf)
Метод сжатия                             : С потерями
Размер потока                            : 496 Кбайт (2%)
Язык                                     : English
Default                                  : Да
Alternate group                          : 1

Общее
Полное имя                               : F:\Клипы\Rock\Wax Audio - Mashopolos (2016)\14. Metallica - Panjabi MC.mp4
Формат                                   : MPEG-4
Профиль формата                          : Base Media
Идентификатор кодека                     : isom (isom/iso2/avc1/mp41)
Размер файла                             : 50,2 Мбайт
Продолжительность                        : 4 м. 6 с.
Режим общего битрейта                    : Переменный
Общий поток                              : 1706 Кбит/сек
Название фильма                          : 950523004991043
Программа кодирования                    : Lavf56.4.101

Видео
Идентификатор                            : 1
Формат                                   : AVC
Формат/Информация                        : Advanced Video Codec
Профиль формата                          :
Параметр CABAC формата                   : Да
Параметр ReFrames формата                : 5 кадров
Идентификатор кодека                     : avc1
Идентификатор кодека/Информация          : Advanced Video Coding
Продолжительность                        : 4 м. 6 с.
Битрейт                                  : 1655 Кбит/сек
Ширина                                   : 1280 пикселей
Высота                                   : 720 пикселей
Соотношение сторон                       : 16:9
Режим частоты кадров                     : Постоянный
Частота кадров                           : 25,000 кадров/сек
Цветовое пространство                    : YUV
Субдискретизация насыщенности            : 4:2:0
Битовая глубина                          : 8 бит
Тип развёртки                            : Прогрессивная
Бит/(Пиксели*Кадры)                      : 0.072
Размер потока                            : 48,7 Мбайт (97%)
Библиотека кодирования                   : x264 core 142
Настройки программы                      :
Язык                                     : English

Аудио
Идентификатор                            : 2
Формат                                   : AAC
Формат/Информация                        : Advanced Audio Codec
Профиль формата                          : HE-AACv2 / HE-AAC / LC
Идентификатор кодека                     : 40
Продолжительность                        : 4 м. 6 с.
Duration_LastFrame                       : -1 мс.
Вид битрейта                             : Переменный
Битрейт                                  : 48,0 Кбит/сек
Максимальный битрейт                     : 2500 Кбит/сек
Каналы                                   : 2 канала / 1 канал / 1 канал
Расположение каналов                     : Front: L R / Front: C / Front: C
Частота                                  : 48,0 КГц / 48,0 КГц / 24,0 КГц
Частота кадров                           : 23,438 кадра/сек (1024 spf)
Метод сжатия                             : С потерями
Размер потока                            : 1,41 Мбайт (3%)
Язык                                     : English
Default                                  : Да
Alternate group                          : 1

Общее
Полное имя                               : F:\Клипы\Rock\Wax Audio - Mashopolos (2016)\15. Enter You (Bryan Adams vs Metallica ).mp4
Формат                                   : MPEG-4
Профиль формата                          : Base Media
Идентификатор кодека                     : isom (isom/iso2/avc1/mp41)
Размер файла                             : 72,2 Мбайт
Продолжительность                        : 3 м. 40 с.
Режим общего битрейта                    : Переменный
Общий поток                              : 2746 Кбит/сек
Программа кодирования                    : Lavf56.30.100

Видео
Идентификатор                            : 1
Формат                                   : AVC
Формат/Информация                        : Advanced Video Codec
Профиль формата                          :
Параметр CABAC формата                   : Да
Параметр ReFrames формата                : 4 кадра
Идентификатор кодека                     : avc1
Идентификатор кодека/Информация          : Advanced Video Coding
Продолжительность                        : 3 м. 40 с.
Битрейт                                  : 2591 Кбит/сек
Ширина                                   : 1280 пикселей
Высота                                   : 720 пикселей
Соотношение сторон                       : 16:9
Режим частоты кадров                     : Постоянный
Частота кадров                           : 25,000 кадров/сек
Цветовое пространство                    : YUV
Субдискретизация насыщенности            : 4:2:0
Битовая глубина                          : 8 бит
Тип развёртки                            : Прогрессивная
Бит/(Пиксели*Кадры)                      : 0.112
Размер потока                            : 68,1 Мбайт (94%)
Библиотека кодирования                   : x264 core 146
Настройки программы                      :
Аудио
Идентификатор                            : 2
Формат                                   : AAC
Формат/Информация                        : Advanced Audio Codec
Профиль формата                          : LC
Идентификатор кодека                     : 40
Продолжительность                        : 3 м. 40 с.
Вид битрейта                             : Переменный
Битрейт                                  : 149 Кбит/сек
Максимальный битрейт                     : 192 Кбит/сек
Каналы                                   : 2 канала
Расположение каналов                     : Front: L R
Частота                                  : 44,1 КГц
Частота кадров                           : 43,066 кадра/сек (1024 spf)
Метод сжатия                             : С потерями
Размер потока                            : 3,92 Мбайт (5%)
Default                                  : Да
Alternate group                          : 1

Общее
Полное имя                               : F:\Клипы\Rock\Wax Audio - Mashopolos (2016)\16. Chemical Diver (Chemical Brothers + Dio).mp4
Формат                                   : MPEG-4
Профиль формата                          : Base Media / Version 2
Идентификатор кодека                     : mp42 (isom/mp42)
Размер файла                             : 88,2 Мбайт
Продолжительность                        : 4 м. 16 с.
Режим общего битрейта                    : Переменный
Общий поток                              : 2885 Кбит/сек
Дата кодирования                         : UTC 2013-07-09 16:00:17
Дата пометки                             : UTC 2013-07-09 16:00:17
gsst                                     : 0
gstd                                     : 256533
gssd                                     : B4A7DA361HH1373644761372415
gshh                                     : r3---sn-5go7ln7z.c.
Видео
Идентификатор                            : 1
Формат                                   : AVC
Формат/Информация                        : Advanced Video Codec
Профиль формата                          :
Параметр CABAC формата                   : Да
Параметр ReFrames формата                : 1 кадр
Параметр GOP формата                     : M=1, N=60
Идентификатор кодека                     : avc1
Идентификатор кодека/Информация          : Advanced Video Coding
Продолжительность                        : 4 м. 16 с.
Битрейт                                  : 2690 Кбит/сек
Максимальный битрейт                     : 8039 Кбит/сек
Ширина                                   : 1280 пикселей
Высота                                   : 720 пикселей
Соотношение сторон                       : 16:9
Режим частоты кадров                     : Постоянный
Частота кадров                           : 25,000 кадров/сек
Цветовое пространство                    : YUV
Субдискретизация насыщенности            : 4:2:0
Битовая глубина                          : 8 бит
Тип развёртки                            : Прогрессивная
Бит/(Пиксели*Кадры)                      : 0.117
Размер потока                            : 82,2 Мбайт (93%)
Дата пометки                             : UTC 2013-07-09 16:00:21

Аудио
Идентификатор                            : 2
Формат                                   : AAC
Формат/Информация                        : Advanced Audio Codec
Профиль формата                          : LC
Идентификатор кодека                     : 40
Продолжительность                        : 4 м. 16 с.
Вид битрейта                             : Переменный
Битрейт                                  : 192 Кбит/сек
Максимальный битрейт                     : 202 Кбит/сек
Каналы                                   : 2 канала
Расположение каналов                     : Front: L R
Частота                                  : 44,1 КГц
Частота кадров                           : 43,066 кадра/сек (1024 spf)
Метод сжатия                             : С потерями
Размер потока                            : 5,87 Мбайт (7%)
Заголовок                                : IsoMedia File Produced by Google, 5-11-2011
Дата кодирования                         : UTC 2013-07-09 16:00:19
Дата пометки                             : UTC 2013-07-09 16:00:21

Общее
Полное имя                               : F:\Клипы\Rock\Wax Audio - Mashopolos (2016)\17. Prince - Thought it was time...mp4
Формат                                   : MPEG-4
Профиль формата                          : Base Media
Идентификатор кодека                     : isom (isom/iso2/avc1/mp41)
Размер файла                             : 25,2 Мбайт
Продолжительность                        : 4 м. 25 с.
Общий поток                              : 795 Кбит/сек
Название фильма                          : 1052444801465529
Программа кодирования                    : Lavf56.4.101

Видео
Идентификатор                            : 1
Формат                                   : AVC
Формат/Информация                        : Advanced Video Codec
Профиль формата                          :
Параметр CABAC формата                   : Да
Параметр ReFrames формата                : 5 кадров
Идентификатор кодека                     : avc1
Идентификатор кодека/Информация          : Advanced Video Coding
Продолжительность                        : 4 м. 25 с.
Битрейт                                  : 745 Кбит/сек
Ширина                                   : 1280 пикселей
Высота                                   : 720 пикселей
Соотношение сторон                       : 16:9
Режим частоты кадров                     : Постоянный
Частота кадров                           : 25,000 кадров/сек
Цветовое пространство                    : YUV
Субдискретизация насыщенности            : 4:2:0
Битовая глубина                          : 8 бит
Тип развёртки                            : Прогрессивная
Бит/(Пиксели*Кадры)                      : 0.032
Размер потока                            : 23,6 Мбайт (93%)
Библиотека кодирования                   : x264 core 142
Настройки программы                      :

Аудио
Идентификатор                            : 2
Формат                                   : AAC
Формат/Информация                        : Advanced Audio Codec
Профиль формата                          : HE-AACv2 / HE-AAC / LC
Идентификатор кодека                     : 40
Продолжительность                        : 4 м. 25 с.
Duration_LastFrame                       : 147 мс.
Вид битрейта                             : Постоянный
Битрейт                                  : 48,0 Кбит/сек
Каналы                                   : 2 канала / 1 канал / 1 канал
Расположение каналов                     : Front: L R / Front: C / Front: C
Частота                                  : 48,0 КГц / 48,0 КГц / 24,0 КГц
Частота кадров                           : 23,438 кадра/сек (1024 spf)
Метод сжатия                             : С потерями
Размер потока                            : 1,52 Мбайт (6%)
Язык                                     : English
Default                                  : Да
Alternate group                          : 1

Общее
Полное имя                               : F:\Клипы\Rock\Wax Audio - Mashopolos (2016)\18. Breathe & Destroy - Metallica and The Prodigy.mp4
Формат                                   : MPEG-4
Профиль формата                          : Base Media
Идентификатор кодека                     : isom (isom/iso2/avc1/mp41)
Размер файла                             : 41,6 Мбайт
Продолжительность                        : 4 м. 8 с.
Общий поток                              : 1403 Кбит/сек
Название фильма                          : 1014598925250117
Программа кодирования                    : Lavf56.4.101

Видео
Идентификатор                            : 1
Формат                                   : AVC
Формат/Информация                        : Advanced Video Codec
Профиль формата                          :
Параметр CABAC формата                   : Да
Параметр ReFrames формата                : 5 кадров
Идентификатор кодека                     : avc1
Идентификатор кодека/Информация          : Advanced Video Coding
Продолжительность                        : 4 м. 8 с.
Битрейт                                  : 1381 Кбит/сек
Ширина                                   : 1280 пикселей
Высота                                   : 720 пикселей
Соотношение сторон                       : 16:9
Режим частоты кадров                     : Постоянный
Частота кадров                           : 25,000 кадров/сек
Цветовое пространство                    : YUV
Субдискретизация насыщенности            : 4:2:0
Битовая глубина                          : 8 бит
Тип развёртки                            : Прогрессивная
Бит/(Пиксели*Кадры)                      : 0.060
Размер потока                            : 40,9 Мбайт (98%)
Библиотека кодирования                   : x264 core 142
Настройки программы                      :

Аудио
Идентификатор                            : 2
Формат                                   : AAC
Формат/Информация                        : Advanced Audio Codec
Профиль формата                          : HE-AACv2 / HE-AAC / LC
Идентификатор кодека                     : 40
Продолжительность                        : 4 м. 8 с.
Duration_LastFrame                       : 147 мс.
Вид битрейта                             : Постоянный
Битрейт                                  : 20,0 Кбит/сек
Каналы                                   : 2 канала / 1 канал / 1 канал
Расположение каналов                     : Front: L R / Front: C / Front: C
Частота                                  : 48,0 КГц / 48,0 КГц / 24,0 КГц
Частота кадров                           : 23,438 кадра/сек (1024 spf)
Метод сжатия                             : С потерями
Размер потока                            : 607 Кбайт (1%)
Язык                                     : English
Default                                  : Да
Alternate group                          : 1

Общее
Полное имя                               : F:\Клипы\Rock\Wax Audio - Mashopolos (2016)\19. Iron Maiden and The Crystal Method.mp4
Формат                                   : MPEG-4
Профиль формата                          : Base Media
Идентификатор кодека                     : isom (isom/iso2/avc1/mp41)
Размер файла                             : 39,2 Мбайт
Продолжительность                        : 3 м. 53 с.
Общий поток                              : 1406 Кбит/сек
Название фильма                          : 1005977339445609
Программа кодирования                    : Lavf56.4.101

Видео
Идентификатор                            : 1
Формат                                   : AVC
Формат/Информация                        : Advanced Video Codec
Профиль формата                          :
Параметр CABAC формата                   : Да
Параметр ReFrames формата                : 5 кадров
Идентификатор кодека                     : avc1
Идентификатор кодека/Информация          : Advanced Video Coding
Продолжительность                        : 3 м. 53 с.
Битрейт                                  : 1384 Кбит/сек
Ширина                                   : 1280 пикселей
Высота                                   : 720 пикселей
Соотношение сторон                       : 16:9
Режим частоты кадров                     : Постоянный
Частота кадров                           : 25,000 кадров/сек
Цветовое пространство                    : YUV
Субдискретизация насыщенности            : 4:2:0
Битовая глубина                          : 8 бит
Тип развёртки                            : Прогрессивная
Бит/(Пиксели*Кадры)                      : 0.060
Размер потока                            : 38,5 Мбайт (98%)
Библиотека кодирования                   : x264 core 142
Настройки программы                      :

Аудио
Идентификатор                            : 2
Формат                                   : AAC
Формат/Информация                        : Advanced Audio Codec
Профиль формата                          : HE-AACv2 / HE-AAC / LC
Идентификатор кодека                     : 40
Продолжительность                        : 3 м. 53 с.
Duration_LastFrame                       : 147 мс.
Вид битрейта                             : Постоянный
Битрейт                                  : 20,0 Кбит/сек
Каналы                                   : 2 канала / 1 канал / 1 канал
Расположение каналов                     : Front: L R / Front: C / Front: C
Частота                                  : 48,0 КГц / 48,0 КГц / 24,0 КГц
Частота кадров                           : 23,438 кадра/сек (1024 spf)
Метод сжатия                             : С потерями
Размер потока                            : 571 Кбайт (1%)
Язык                                     : English
Default                                  : Да
Alternate group                          : 1

Общее
Полное имя                               : F:\Клипы\Rock\Wax Audio - Mashopolos (2016)\20. Sad But Superstitious Metallica & Stevie Wonder.mp4
Формат                                   : MPEG-4
Профиль формата                          : Base Media
Идентификатор кодека                     : isom (isom/iso2/avc1/mp41)
Размер файла                             : 37,6 Мбайт
Продолжительность                        : 4 м. 42 с.
Общий поток                              : 1118 Кбит/сек
Название фильма                          : 1010104289032914
Программа кодирования                    : Lavf56.4.101

Видео
Идентификатор                            : 1
Формат                                   : AVC
Формат/Информация                        : Advanced Video Codec
Профиль формата                          :
Параметр CABAC формата                   : Да
Параметр ReFrames формата                : 5 кадров
Идентификатор кодека                     : avc1
Идентификатор кодека/Информация          : Advanced Video Coding
Продолжительность                        : 4 м. 41 с.
Битрейт                                  : 1096 Кбит/сек
Ширина                                   : 1280 пикселей
Высота                                   : 720 пикселей
Соотношение сторон                       : 16:9
Режим частоты кадров                     : Постоянный
Частота кадров                           : 25,000 кадров/сек
Цветовое пространство                    : YUV
Субдискретизация насыщенности            : 4:2:0
Битовая глубина                          : 8 бит
Тип развёртки                            : Прогрессивная
Бит/(Пиксели*Кадры)                      : 0.048
Размер потока                            : 36,8 Мбайт (98%)
Библиотека кодирования                   : x264 core 142
Настройки программы                      :

Аудио
Идентификатор                            : 2
Формат                                   : AAC
Формат/Информация                        : Advanced Audio Codec
Профиль формата                          : HE-AACv2 / HE-AAC / LC
Идентификатор кодека                     : 40
Продолжительность                        : 4 м. 42 с.
Duration_LastFrame                       : 125 мс.
Вид битрейта                             : Постоянный
Битрейт                                  : 20,0 Кбит/сек
Каналы                                   : 2 канала / 1 канал / 1 канал
Расположение каналов                     : Front: L R / Front: C / Front: C
Частота                                  : 48,0 КГц / 48,0 КГц / 24,0 КГц
Частота кадров                           : 23,438 кадра/сек (1024 spf)
Метод сжатия                             : С потерями
Размер потока                            : 689 Кбайт (2%)
Язык                                     : English
Default                                  : Да
Alternate group                          : 1

Общее
Полное имя                               : F:\Клипы\Rock\Wax Audio - Mashopolos (2016)\21. The Beatles & Massive Attack -  Golden Teardrops.mp4
Формат                                   : MPEG-4
Профиль формата                          : Base Media
Идентификатор кодека                     : isom (isom/iso2/avc1/mp41)
Размер файла                             : 19,6 Мбайт
Продолжительность                        : 3 м. 40 с.
Общий поток                              : 748 Кбит/сек
Название фильма                          : 1009134665796543
Программа кодирования                    : Lavf56.4.101

Видео
Идентификатор                            : 1
Формат                                   : AVC
Формат/Информация                        : Advanced Video Codec
Профиль формата                          :
Параметр CABAC формата                   : Да
Параметр ReFrames формата                : 5 кадров
Идентификатор кодека                     : avc1
Идентификатор кодека/Информация          : Advanced Video Coding
Продолжительность                        : 3 м. 39 с.
Битрейт                                  : 725 Кбит/сек
Ширина                                   : 1280 пикселей
Высота                                   : 720 пикселей
Соотношение сторон                       : 16:9
Режим частоты кадров                     : Постоянный
Частота кадров                           : 25,000 кадров/сек
Цветовое пространство                    : YUV
Субдискретизация насыщенности            : 4:2:0
Битовая глубина                          : 8 бит
Тип развёртки                            : Прогрессивная
Бит/(Пиксели*Кадры)                      : 0.031
Размер потока                            : 19,0 Мбайт (97%)
Библиотека кодирования                   : x264 core 142
Настройки программы                      :nal_hrd=none / filler=0 / ip_ratio=1.40 / aq=2:1.00

Аудио
Идентификатор                            : 2
Формат                                   : AAC
Формат/Информация                        : Advanced Audio Codec
Профиль формата                          : HE-AACv2 / HE-AAC / LC
Идентификатор кодека                     : 40
Продолжительность                        : 3 м. 40 с.
Duration_LastFrame                       : 125 мс.
Вид битрейта                             : Постоянный
Битрейт                                  : 20,0 Кбит/сек
Каналы                                   : 2 канала / 1 канал / 1 канал
Расположение каналов                     : Front: L R / Front: C / Front: C
Частота                                  : 48,0 КГц / 48,0 КГц / 24,0 КГц
Частота кадров                           : 23,438 кадра/сек (1024 spf)
Метод сжатия                             : С потерями
Размер потока                            : 537 Кбайт (3%)
Язык                                     : English
Default                                  : Да
Alternate group                          : 1

Общее
Полное имя                               : F:\Клипы\Rock\Wax Audio - Mashopolos (2016)\22. The Beatles - With Motley Crue.mp4
Формат                                   : MPEG-4
Профиль формата                          : Base Media
Идентификатор кодека                     : isom (isom/iso2/avc1/mp41)
Размер файла                             : 38,0 Мбайт
Продолжительность                        : 3 м. 29 с.
Режим общего битрейта                    : Переменный
Общий поток                              : 1519 Кбит/сек
Название фильма                          : 1003724493004227
Программа кодирования                    : Lavf56.4.101

Видео
Идентификатор                            : 1
Формат                                   : AVC
Формат/Информация                        : Advanced Video Codec
Профиль формата                          :
Параметр CABAC формата                   : Да
Параметр ReFrames формата                : 5 кадров
Идентификатор кодека                     : avc1
Идентификатор кодека/Информация          : Advanced Video Coding
Продолжительность                        : 3 м. 29 с.
Битрейт                                  : 1467 Кбит/сек
Ширина                                   : 1280 пикселей
Высота                                   : 720 пикселей
Соотношение сторон                       : 16:9
Режим частоты кадров                     : Постоянный
Частота кадров                           : 29,970 (29970/1000) кадров/сек
Цветовое пространство                    : YUV
Субдискретизация насыщенности            : 4:2:0
Битовая глубина                          : 8 бит
Тип развёртки                            : Прогрессивная
Бит/(Пиксели*Кадры)                      : 0.053
Размер потока                            : 36,6 Мбайт (97%)
Библиотека кодирования                   : x264 core 142
Настройки программы                      :
Язык                                     : English

Аудио
Идентификатор                            : 2
Формат                                   : AAC
Формат/Информация                        : Advanced Audio Codec
Профиль формата                          : HE-AACv2 / HE-AAC / LC
Идентификатор кодека                     : 40
Продолжительность                        : 3 м. 29 с.
Duration_LastFrame                       : -1 мс.
Вид битрейта                             : Переменный
Битрейт                                  : 48,0 Кбит/сек
Максимальный битрейт                     : 2500 Кбит/сек
Каналы                                   : 2 канала / 1 канал / 1 канал
Расположение каналов                     : Front: L R / Front: C / Front: C
Частота                                  : 48,0 КГц / 48,0 КГц / 24,0 КГц
Частота кадров                           : 23,438 кадра/сек (1024 spf)
Метод сжатия                             : С потерями
Размер потока                            : 1,20 Мбайт (3%)
Язык                                     : English
Default                                  : Да
Alternate group                          : 1

Общее
Полное имя                               : F:\Клипы\Rock\Wax Audio - Mashopolos (2016)\23. The Devil’s Highway (Van Halen + ACDC).MP4
Формат                                   : MPEG-4
Профиль формата                          : Base Media
Идентификатор кодека                     : isom (isom/iso2/avc1/mp41)
Размер файла                             : 43,0 Мбайт
Продолжительность                        : 3 м. 28 с.
Режим общего битрейта                    : Переменный
Общий поток                              : 1727 Кбит/сек
Название фильма                          : 905245619518782
Программа кодирования                    : Lavf56.4.101

Видео
Идентификатор                            : 1
Формат                                   : AVC
Формат/Информация                        : Advanced Video Codec
Профиль формата                          :
Параметр CABAC формата                   : Да
Параметр ReFrames формата                : 5 кадров
Идентификатор кодека                     : avc1
Идентификатор кодека/Информация          : Advanced Video Coding
Продолжительность                        : 3 м. 28 с.
Битрейт                                  : 1677 Кбит/сек
Ширина                                   : 1280 пикселей
Высота                                   : 720 пикселей
Соотношение сторон                       : 16:9
Режим частоты кадров                     : Постоянный
Частота кадров                           : 25,000 кадров/сек
Цветовое пространство                    : YUV
Субдискретизация насыщенности            : 4:2:0
Битовая глубина                          : 8 бит
Тип развёртки                            : Прогрессивная
Бит/(Пиксели*Кадры)                      : 0.073
Размер потока                            : 41,7 Мбайт (97%)
Библиотека кодирования                   : x264 core 142
Настройки программы                      :
Язык                                     : English

Аудио
Идентификатор                            : 2
Формат                                   : AAC
Формат/Информация                        : Advanced Audio Codec
Профиль формата                          : HE-AACv2 / HE-AAC / LC
Идентификатор кодека                     : 40
Продолжительность                        : 3 м. 28 с.
Duration_LastFrame                       : -23 мс.
Вид битрейта                             : Переменный
Битрейт                                  : 48,0 Кбит/сек
Максимальный битрейт                     : 2500 Кбит/сек
Каналы                                   : 2 канала / 1 канал / 1 канал
Расположение каналов                     : Front: L R / Front: C / Front: C
Частота                                  : 48,0 КГц / 48,0 КГц / 24,0 КГц
Частота кадров                           : 23,438 кадра/сек (1024 spf)
Метод сжатия                             : С потерями
Размер потока                            : 1,20 Мбайт (3%)
Язык                                     : English
Default                                  : Да
Alternate group                          : 1

Общее
Полное имя                               : F:\Клипы\Rock\Wax Audio - Mashopolos (2016)\24. Tori Amos,PJ Harvey,Björk,Massive Attack - Dissolved By The Water All These Years.MP4
Формат                                   : MPEG-4
Профиль формата                          : Base Media
Идентификатор кодека                     : isom (isom/iso2/avc1/mp41)
Размер файла                             : 34,7 Мбайт
Продолжительность                        : 4 м. 17 с.
Режим общего битрейта                    : Переменный
Общий поток                              : 1129 Кбит/сек
Название фильма                          : 929709310405746
Программа кодирования                    : Lavf56.4.101

Видео
Идентификатор                            : 1
Формат                                   : AVC
Формат/Информация                        : Advanced Video Codec
Профиль формата                          :
Параметр CABAC формата                   : Да
Параметр ReFrames формата                : 5 кадров
Идентификатор кодека                     : avc1
Идентификатор кодека/Информация          : Advanced Video Coding
Продолжительность                        : 4 м. 17 с.
Битрейт                                  : 1077 Кбит/сек
Ширина                                   : 1280 пикселей
Высота                                   : 720 пикселей
Соотношение сторон                       : 16:9
Режим частоты кадров                     : Постоянный
Частота кадров                           : 25,000 кадров/сек
Цветовое пространство                    : YUV
Субдискретизация насыщенности            : 4:2:0
Битовая глубина                          : 8 бит
Тип развёртки                            : Прогрессивная
Бит/(Пиксели*Кадры)                      : 0.047
Размер потока                            : 33,1 Мбайт (95%)
Библиотека кодирования                   : x264 core 142
Настройки программы                      :
Язык                                     : English

Аудио
Идентификатор                            : 2
Формат                                   : AAC
Формат/Информация                        : Advanced Audio Codec
Профиль формата                          : HE-AACv2 / HE-AAC / LC
Идентификатор кодека                     : 40
Продолжительность                        : 4 м. 17 с.
Duration_LastFrame                       : -23 мс.
Вид битрейта                             : Переменный
Битрейт                                  : 48,0 Кбит/сек
Максимальный битрейт                     : 2500 Кбит/сек
Каналы                                   : 2 канала / 1 канал / 1 канал
Расположение каналов                     : Front: L R / Front: C / Front: C
Частота                                  : 48,0 КГц / 48,0 КГц / 24,0 КГц
Частота кадров                           : 23,438 кадра/сек (1024 spf)
Метод сжатия                             : С потерями
Размер потока                            : 1,47 Мбайт (4%)
Язык                                     : English
Default                                  : Да
Alternate group                          : 1

Общее
Полное имя                               : F:\Клипы\Rock\Wax Audio - Mashopolos (2016)\25. A Hotel Full of Secrets (The Eagles + Pink Floyd).MP4
Формат                                   : MPEG-4
Профиль формата                          : Base Media
Идентификатор кодека                     : isom (isom/iso2/avc1/mp41)
Размер файла                             : 35,3 Мбайт
Продолжительность                        : 4 м. 44 с.
Общий поток                              : 1040 Кбит/сек
Название фильма                          : 968398509870159
Программа кодирования                    : Lavf56.4.101

Видео
Идентификатор                            : 1
Формат                                   : AVC
Формат/Информация                        : Advanced Video Codec
Профиль формата                          :
Параметр CABAC формата                   : Да
Параметр ReFrames формата                : 5 кадров
Идентификатор кодека                     : avc1
Идентификатор кодека/Информация          : Advanced Video Coding
Продолжительность                        : 4 м. 44 с.
Битрейт                                  : 1017 Кбит/сек
Ширина                                   : 1280 пикселей
Высота                                   : 720 пикселей
Соотношение сторон                       : 16:9
Режим частоты кадров                     : Постоянный
Частота кадров                           : 25,000 кадров/сек
Цветовое пространство                    : YUV
Субдискретизация насыщенности            : 4:2:0
Битовая глубина                          : 8 бит
Тип развёртки                            : Прогрессивная
Бит/(Пиксели*Кадры)                      : 0.044
Размер потока                            : 34,4 Мбайт (98%)
Библиотека кодирования                   : x264 core 142
Настройки программы                      :

Аудио
Идентификатор                            : 2
Формат                                   : AAC
Формат/Информация                        : Advanced Audio Codec
Профиль формата                          : HE-AACv2 / HE-AAC / LC
Идентификатор кодека                     : 40
Продолжительность                        : 4 м. 44 с.
Duration_LastFrame                       : 147 мс.
Вид битрейта                             : Постоянный
Битрейт                                  : 20,0 Кбит/сек
Каналы                                   : 2 канала / 1 канал / 1 канал
Расположение каналов                     : Front: L R / Front: C / Front: C
Частота                                  : 48,0 КГц / 48,0 КГц / 24,0 КГц
Частота кадров                           : 23,438 кадра/сек (1024 spf)
Метод сжатия                             : С потерями
Размер потока                            : 694 Кбайт (2%)
Язык                                     : English
Default                                  : Да
Alternate group                          : 1

Скриншоты:


Время раздачи: с 6:00 до 22:00 (GMT +2) (до появления первых 3-5 скачавших)
 
Не забывайте говорить Спасибо. Не уходите с раздачи!   
Торрент: Зарегистрирован [01 май 2016, 18:22] Скачать торрент
Скачать торрент
[ Размер 18.57 КБ / Просмотров 33 ]
Статус:
Проверен
 
.torrent скачан: 1 раз
Хэш: 7c846256536a949984f1c58cdbbd54334272b528
Размер: 1.59 ГБ (1 707 193 271 байт)
Стать Автором раздачи
 
 
Раздал: 100 ГБ
Скачал: 0 байт
Ратио: Seed.
Сообщения: 111480
Зарегистрирован: 09 апр 2015, 22:31


  • Похожие торренты
    Ответы
    Просмотры
    Последнее сообщение

Вернуться в Музыкальные клипы (транзит)

Ресурс не предоставляет электронные версии произведений, а занимается лишь коллекционированием и каталогизацией ссылок, присылаемых и публикуемых на форуме нашими читателями. Если вы являетесь правообладателем какого-либо представленного материала и не желаете чтобы ссылка на него находилась в нашем каталоге, свяжитесь с нами и мы незамедлительно удалим её. Файлы для обмена на трекере предоставлены пользователями сайта, и администрация не несёт ответственности за их содержание. Просьба не заливать файлы, защищенные авторскими правами, а также файлы нелегального содержания!
cron