Легенды завтрашнего дня / DC's Legends of Tomorrow (2016) WEB-DL [H.264/720p-LQ] (сезон 1, серии 1-12 из 16) LostFilm (обновляемая)

 
 Статистика раздачи 
Размер: 16.99 ГБ   |  Зарегистрирован: 27 апр 2016, 21:14   |   .torrent скачан: 0 раз
Сидеров: 1  [ 0 байт/сек ]     Личеров: 0  [ 0 байт/сек ]  
  

Легенды завтрашнего дня / DC's Legends of Tomorrow (2016) WEB-DL [H.264/720p-LQ] (сезон 1, серии 1-12 из 16) LostFilm (обновляемая)

Сообщение explosiveone » 27 апр 2016, 21:14

Легенды завтрашнего дня / DC's Legends of Tomorrow (2016) WEB-DL [H.264/720p-LQ]
(сезон 1, серии 1-12 из 16) LostFilm

«Their time is now»
Производство: США / Berlanti Productions, Bonanza Productions, DC Entertainment
Жанр: фантастика, боевик

Режиссер: Дермотт Даунс, Глен Винтер, Джо Данте
Актеры: Виктор Гарбер, Брэндон Рут, Кейти Лотц, Артур Дарвилл, Сиара Рене, Франц Драмех, Доминик Пёрселл, Вентворт Миллер, Каспер Крамп, Фальк Хеншел и др.

Описание:
Когда одних героев становится недостаточно, спасти мир могут только легенды... В 2166 году могущественный человек по имени Вандал Сэвидж добился немыслимого — завоевал весь мир. Путешественник во времени Рип Хантер видел, какое будущее ожидает человечество, если беспощадный злодей осуществит свой коварный план. На космическом корабле, способном перемещаться во времени, Хантер возвращается на 150 лет назад, в 2016 год. В нашем мире он собирает команду, которой будет под силу остановить Сэвиджа. Рип приглашает примкнуть к группе не только супергероев, но и преступников, пообещав, что они войдут в историю как легенды. Однако что может быть общего у мошенников вроде Капитана Холода и Тепловой волны и ученого-миллиардера Рэя Палмера? Кроме них к команде Хантера присоединяются Сара Лэнс, она же Белая канарейка, доктор Мартин Штейн, делящий опеку над Огненным штормом с молодым и амбициозным Джефферсоном Джексоном, а также Орлица и Ястреб, чья история любви насчитывает несколько тысячелетий. Сплотить всех этих людей оказывается совсем непросто, но под угрозой находятся жизнь всего человечества и время в его привычном понимании. Сможет ли команда, состоящая из плутов и супергероев, одолеть бессмертного злодея, подобных которому мир доселе не видывал?..


Дата мировой премьеры: 21 января 2016

Продолжительность: ~00:44:00 серия
Качество видео: WEB-DL 720p
Перевод: Многоголосый закадровый, профессиональный - LostFilm

Видео: H.264/AVC, 1280x718 (16:9), ~4000 Kbps
Аудио Rus: AC3, 48,0 kHz, 2 ch, 384 kb/s - многоголосый закадровый
Аудио Eng: AC3, 48,0 kHz, 2 ch, 384 kb/s - оригинал
Код:
Код: Выделить всё
General
Unique ID                   : 195511482230022745067123785076040070430 (0x9316244DA6349976A941F40F62A8F51E)
Complete name               : DC's Legends of Tomorrow [LostFilm]\DCs.Legends.of.Tomorrow.S01E01.720p.WEB.rus.LostFilm.TV.mkv
Format                      : Matroska
Format version              : Version 4 / Version 2
File size                   : 1.46 GiB
Duration                    : 44mn 37s
Overall bit rate            : 4 672 Kbps
Encoded date                : UTC 2016-04-27 06:40:47
Writing application         : mkvmerge v9.1.0 ('Little Earthquakes') 64bit
Writing library             : libebml v1.3.3 + libmatroska v1.4.4

Video
ID                          : 1
Format                      : AVC
Format/Info                 : Advanced Video Codec
Format profile              :
Format settings, CABAC      : No
Format settings, ReFrames   : 2 frames
Codec ID                    : V_MPEG4/ISO/AVC
Duration                    : 44mn 37s
Bit rate                    : 4 000 Kbps
Width                       : 1 280 pixels
Height                      : 718 pixels
Display aspect ratio        : 16:9
Frame rate mode             : Constant
Frame rate                  : 23.976 fps
Color space                 : YUV
Chroma subsampling          : 4:2:0
Bit depth                   : 8 bits
Scan type                   : Progressive
Bits/(Pixel*Frame)          : 0.182
Stream size                 : 1.22 GiB (84%)
Writing library             : x264 core 112 r1834 a51816a
Encoding settings           : cabac=0 / ref=3 / deblock=1:0:0 / analyse=0x1:0x111 / me=hex / subme=7 / psy=1 / psy_rd=1.00:0.00 / mixed_ref=1 / me_range=16 / chroma_me=1 / trellis=1 / 8x8dct=0 / cqm=0 / deadzone=21,11 / fast_pskip=1 / chroma_qp_offset=-2 / threads=6 / sliced_threads=0 / nr=0 / decimate=1 / interlaced=0 / constrained_intra=0 / bframes=3 / b_pyramid=2 / b_adapt=1 / b_bias=0 / direct=1 / weightb=1 / open_gop=0 / weightp=2 / keyint=250 / keyint_min=25 / scenecut=40 / intra_refresh=0 / rc_lookahead=40 / rc=abr / mbtree=1 / bitrate=4000 / ratetol=1.0 / qcomp=0.60 / qpmin=0 / qpmax=51 / qpstep=4 / vbv_maxrate=5000 / vbv_bufsize=2000 / ip_ratio=1.40 / aq=1:1.00 / nal_hrd=none
Language                    : English
Default                     : Yes
Forced                      : No
Color range                 : Limited
Color primaries             : BT.709
Transfer characteristics    : BT.709
Matrix coefficients         : BT.709

Audio #1
ID                          : 2
Format                      : AC-3
Format/Info                 : Audio Coding 3
Mode extension              : CM (complete main)
Format settings, Endianness : Big
Codec ID                    : A_AC3
Duration                    : 44mn 37s
Bit rate mode               : Constant
Bit rate                    : 384 Kbps
Channel(s)                  : 2 channels
Channel positions           : Front: L R
Sampling rate               : 48.0 KHz
Frame rate                  : 31.250 fps (1536 spf)
Compression mode            : Lossy
Stream size                 : 123 MiB (8%)
Language                    : Russian
Default                     : Yes
Forced                      : No

Audio #2
ID                          : 3
Format                      : AC-3
Format/Info                 : Audio Coding 3
Mode extension              : CM (complete main)
Format settings, Endianness : Big
Codec ID                    : A_AC3
Duration                    : 44mn 37s
Bit rate mode               : Constant
Bit rate                    : 384 Kbps
Channel(s)                  : 2 channels
Channel positions           : Front: L R
Sampling rate               : 48.0 KHz
Frame rate                  : 31.250 fps (1536 spf)
Compression mode            : Lossy
Stream size                 : 123 MiB (8%)
Language                    : English
Default                     : No
Forced                      : No
01. Pilot, Part 1 / Пилот. Часть 1
02. Pilot, Part 2 / Пилот. Часть 2
03. Blood Ties / Кровные узы
04. White Knights / Благородные рыцари
05. Fail-Safe / Запасной план
06. Star City 2046 / Стар-Сити 2046
07. Marooned / Взаперти
08. Night of the Hawk / Крылатая ночь
09. Left Behind / Оставленные
10. Progeny / Потомок
11. The Magnificent Eight / Великолепная восьмерка
12. Last Refuge / Последний приют
Раздача ведётся путём добавления новых серий; при каждом добавлении создаётся новый торрент. Чтобы начать докачку новой серии, пользователям необходимо сделать следующее:
(1) остановить скачивание,
(2) удалить старый торрент у себя из клиента (старые серии удалять не надо),
(3) скачать новый торрент и запустить его у себя в клиенте вместо старого, при этом указать клиенту путь в старую папку куда и должно происходить скачивание новых серий.

Ваш клиент при этом должен произвести хеширование (проверку) старой папки (если не производит сам - помогите ему сделать это), и будет докачивать только те серии которых у вас ещё нет. Старые серии при этом не удаляются, а продолжают раздаваться!

Eсли вы уже удалили старые серии, то предотвратить повторную закачку старых серий можно, отжав галочку в соответствующих местах при запуске нового торрента. По возможности, желательно не удалять старые серии как можно дольше чтобы релизёр не столько продолжал раздавать старые серии, а смог сконцентрироваться на новых.

Скриншоты:




Время раздачи: 24/7
 
Не забывайте говорить Спасибо. Не уходите с раздачи!   
Торрент: Зарегистрирован [27 апр 2016, 21:14] Для скачивания .torrent
необходима регистрация
Или скачать с помощью
MediaGet
Статус:
Проверен
 
.torrent скачан: 0 раз
Хэш: 8875f3d97202d651a4130c7673121af843e62f2e
Размер: 16.99 ГБ (18 244 621 422 байт)
Стать Автором раздачи
 
 
Раздал: 100 ГБ
Скачал: 0 байт
Ратио: Seed.
Сообщения: 94048
Зарегистрирован: 09 апр 2015, 22:31


  • Похожие торренты
    Ответы
    Просмотры
    Последнее сообщение

Вернуться в Видео для мобильных устройств

Ресурс не предоставляет электронные версии произведений, а занимается лишь коллекционированием и каталогизацией ссылок, присылаемых и публикуемых на форуме нашими читателями. Если вы являетесь правообладателем какого-либо представленного материала и не желаете чтобы ссылка на него находилась в нашем каталоге, свяжитесь с нами и мы незамедлительно удалим её. Файлы для обмена на трекере предоставлены пользователями сайта, и администрация не несёт ответственности за их содержание. Просьба не заливать файлы, защищенные авторскими правами, а также файлы нелегального содержания!
cron