Forteba - For Some Time Past (2008) [FLAC|Lossless|image + .cue] <Deep House, Tech House>

 
 Статистика раздачи 
Размер: 419.24 МБ   |  Зарегистрирован: 27 апр 2016, 08:45   |   .torrent скачан: 2 раз
Сидеров: 1  [ 0 байт/сек ]     Личеров: 0  [ 0 байт/сек ]  
  

Forteba - For Some Time Past (2008) [FLAC|Lossless|image + .cue] <Deep House, Tech House>

Сообщение explosiveone » 27 апр 2016, 08:45

FORTEBA - For Some Time Past

Год: 2008
Жанр: Deep House, Tech House
Издание: Plastic City – plac060-2
Продолжительность: 01:17:00

Кодек: FLAC
Битрейт: Lossless
Тип рипа: image + .cue

Треклист:
01.For Some Time Past
02.Dizoxin
03.Caliphone
04.Piko
05.Drift Away
06.Herald
07.Exxed
08.Snowfall
09.Second
10.No Sleep No Dreams
11.Save The Memories
12.Missing
Код:
Код: Выделить всё
Exact Audio Copy V0.99 prebeta 4 from 23. January 2008

Отчёт EAC об извлечении, выполненном 22. ноября 2008, 22:57

Forteba / For Some Time Past

Дисковод: ASUS    DRW-2014L1   Adapter: 4  ID: 0

Режим чтения                 : Достоверность
Использование точного потока : Да
Отключение кэша аудио        : Да
Использование указателей C2  : Нет

Коррекция смещения при чтении                     : 6
Способность читать области Lead-in и Lead-out     : Нет
Заполнение пропущенных сэмплов тишиной            : Да
Удаление блоков с тишиной в начале и конце        : Нет
При вычислениях CRC использовались нулевые сэмплы : Да
Интерфейс                                         : Встроенный Win32-интерфейс для Win NT/2000

Выходной формат          : Пользовательский кодировщик
Выбранный битрейт        : 1024 kBit/s
Качество                 : Высокий
Добавление ID3-тэга      : Да
Утилита сжатия           : C:\Program Files (x86)\Exact Audio Copy\FLAC\FLAC.EXE
Дополнительные параметры : -6 -V -T "ARTIST=%a" -T "TITLE=%t" -T "ALBUM=%g" -T "DATE=%y" -T "TRACKNUMBER=%n" -T "GENRE=%m" -T "COMMENT=%e" %s -o %d

TOC извлечённого CD

     Трек |   Старт  | Длительность | Начальный сектор | Конечный сектор
    ---------------------------------------------------------------------
       1  |  0:00.00 |    7:17.29   |           0      |      32803
       2  |  7:17.29 |    7:16.26   |       32804      |      65529
       3  | 14:33.55 |    5:59.43   |       65530      |      92497
       4  | 20:33.23 |    5:14.02   |       92498      |     116049
       5  | 25:47.25 |    4:30.39   |      116050      |     136338
       6  | 30:17.64 |    4:51.46   |      136339      |     158209
       7  | 35:09.35 |    6:14.17   |      158210      |     186276
       8  | 41:23.52 |    6:30.42   |      186277      |     215568
       9  | 47:54.19 |    6:17.16   |      215569      |     243859
      10  | 54:11.35 |    5:40.61   |      243860      |     269420
      11  | 59:52.21 |    7:42.60   |      269421      |     304130
      12  | 67:35.06 |    9:24.69   |      304131      |     346499

Характеристики диапазона извлечения и сообщения об ошибках

Выбранный диапазон

     Имя файла K:\Forteba - For Some Time Past (Plastic City plac060-2) [2008] (FLAC+CUE)\Forteba - For Some Time Past.wav

     Пиковый уровень 99.5 %
     Качество диапазона 99.9 %
     CRC копии 738A372A
     Копирование... OK

Ошибок не произошло

Конец отчёта
Код:
Код: Выделить всё
-----------------------

DON'T MODIFY THIS FILE

-----------------------

PERFORMER: auCDtect Task Manager, ver. 1.6.0 RC1 build 1.6.0.1
Copyright (c) 2008-2010 y-soft. All rights reserved
http:/y-soft.org

ANALYZER: auCDtect: CD records authenticity detector, version 0.8.2
Copyright (c) 2004 Oleg Berngardt. All rights reserved.
Copyright (c) 2004 Alexander Djourik. All rights reserved.

FILE: Forteba - For Some Time Past.flac
  Size: 439280397 Hash: D2A9F24F94167A9DC1EEAD5F786BB3AA Accuracy: -m0
  Conclusion: CDDA 99%
  Signature: EE6472D12BF8AED42E67E856490725680435ECDD

Время раздачи:
16/7 (до появления первых 3-5 скачавших)
 
Не забывайте говорить Спасибо. Не уходите с раздачи!   
Торрент: Зарегистрирован [27 апр 2016, 08:45] Скачать торрент
Скачать торрент
[ Размер 17.54 КБ / Просмотров 25 ]
Статус:
Проверен
 
.torrent скачан: 2 раз
Хэш: 91b1446512ac84c1a12ee73848223c81a6614701
Размер: 419.24 МБ (439 603 984 байт)
Стать Автором раздачи
 
 
Раздал: 100 ГБ
Скачал: 0 байт
Ратио: Seed.
Сообщения: 111979
Зарегистрирован: 09 апр 2015, 22:31


  • Похожие торренты
    Ответы
    Просмотры
    Последнее сообщение

Вернуться в House, Techno, Electro, Minimal (транзит Lossless)

Ресурс не предоставляет электронные версии произведений, а занимается лишь коллекционированием и каталогизацией ссылок, присылаемых и публикуемых на форуме нашими читателями. Если вы являетесь правообладателем какого-либо представленного материала и не желаете чтобы ссылка на него находилась в нашем каталоге, свяжитесь с нами и мы незамедлительно удалим её. Файлы для обмена на трекере предоставлены пользователями сайта, и администрация не несёт ответственности за их содержание. Просьба не заливать файлы, защищенные авторскими правами, а также файлы нелегального содержания!
cron