EXперименты. Звуки музыки (4 серии) [2014-2015, Документальный, HDTV 1080i]

 
 Статистика раздачи 
Размер: 5.07 ГБ   |  Зарегистрирован: 22 апр 2016, 11:17   |   .torrent скачан: 0 раз
Сидеров: 1  [ 0 байт/сек ]     Личеров: 0  [ 0 байт/сек ]  
  

EXперименты. Звуки музыки (4 серии) [2014-2015, Документальный, HDTV 1080i]

Сообщение i926 » 22 апр 2016, 11:17

EXперименты. Звуки музыки (4 серии)

Год выпуска: 2014-2015
Страна: Россия
Жанр: Документальный
Продолжительность: 4 x 26 минут
Перевод: Не требуется
Описание: В новом фильме "Ехперименты с Антоном Войцеховским" мы в очередной раз попытаемся познать таинство такого вида искусства, как музыка. Как устроен симфонический оркестр? Как извлекаются звуки? Можно ли увидеть звук? Какие необычные музыкальные инструменты существуют? Можно ли извлечь музыку из подручных вещей? Ответы на все эти вопросы в фильме "Звуки музыки".

Доп. информация: IPTV Remux (запись потока без перекодирования)

Тип релиза: HDTV 1080i
Контейнер: TS

Видео: AVC H.264, 1920x1080i (16:9), 25 fps, 6509 kbps , 0.126 bits/pixel
Аудио: MPEG Audio, 2 channels, 192 kbps, 48KHz
Код: Выделить всё
General
ID                                       : 1 (0x1)
Complete name                            : EXперименты. Звуки музыки - Фильм 1.ts
Format                                   : MPEG-TS
File size                                : 1.31 GiB
Duration                                 : 26mn 38s
Overall bit rate mode                    : Variable
Overall bit rate                         : 7 052 Kbps

Video
ID                                       : 1012 (0x3F4)
Menu ID                                  : 1 (0x1)
Format                                   : AVC
Format/Info                              : Advanced Video Codec
Format profile                           : High@L4.0
Format settings, CABAC                   : Yes
Format settings, ReFrames                : 4 frames
Codec ID                                 : 27
Duration                                 : 26mn 38s
Bit rate                                 : 6 509 Kbps
Width                                    : 1 920 pixels
Height                                   : 1 080 pixels
Display aspect ratio                     : 16:9
Frame rate                               : 25.000 fps
Color space                              : YUV
Chroma subsampling                       : 4:2:0
Bit depth                                : 8 bits
Scan type                                : MBAFF
Bits/(Pixel*Frame)                       : 0.126
Stream size                              : 1.21 GiB (92%)

Audio
ID                                       : 1102 (0x44E)
Menu ID                                  : 1 (0x1)
Format                                   : MPEG Audio
Format version                           : Version 1
Format profile                           : Layer 2
Codec ID                                 : 3
Duration                                 : 26mn 38s
Bit rate mode                            : Constant
Bit rate                                 : 192 Kbps
Channel(s)                               : 2 channels
Sampling rate                            : 48.0 KHz
Compression mode                         : Lossy
Stream size                              : 36.6 MiB (3%)
Language                                 : English
 
Не забывайте говорить Спасибо. Не уходите с раздачи!   
Торрент: Зарегистрирован [22 апр 2016, 11:17] Для скачивания .torrent
необходима регистрация
Или скачать с помощью
MediaGet
Статус:
Проверен
 
.torrent скачан: 0 раз
Хэш: 55405325b9d10265ce7562242a1ba6891a841b4a
Размер: 5.07 ГБ (5 443 630 616 байт)
Стать Автором раздачи
 
Аватара пользователя
Главный редактор
Главный редактор
 
Раздал: 15.42 ТБ
Скачал: 13.46 ТБ
Ратио: 1.145
Сообщения: 64773
Зарегистрирован: 01 мар 2011, 23:07


  • Похожие торренты
    Ответы
    Просмотры
    Последнее сообщение

Вернуться в Естествознание, наука и техника (HD Video)

Кто сейчас на конференции

Сейчас эту тему просматривают: нет зарегистрированных пользователей и гости: 1

Ресурс не предоставляет электронные версии произведений, а занимается лишь коллекционированием и каталогизацией ссылок, присылаемых и публикуемых на форуме нашими читателями. Если вы являетесь правообладателем какого-либо представленного материала и не желаете чтобы ссылка на него находилась в нашем каталоге, свяжитесь с нами и мы незамедлительно удалим её. Файлы для обмена на трекере предоставлены пользователями сайта, и администрация не несёт ответственности за их содержание. Просьба не заливать файлы, защищенные авторскими правами, а также файлы нелегального содержания!