Лунные скитальцы (2016) SATRip

 
 Статистика раздачи 
Размер: 601.01 МБ   |  Зарегистрирован: 17 апр 2016, 20:25   |   .torrent скачан: 1 раз
Сидеров: 1  [ 0 байт/сек ]     Личеров: 0  [ 0 байт/сек ]  
  

Лунные скитальцы (2016) SATRip

Сообщение explosiveone » 17 апр 2016, 20:25

Лунные скитальцы (2016) SATRip

Телекомпания: Телеканал "Россия-Культура"
Жанр: Документальный

Описание:
17 ноября 1970 года космический аппарат "Луна-17" доставил "Луноход-1" в Море Дождей. На следующий день водитель Вячеслав Довгань, поздравляя супругу с днем рождения, написал в телеграмме: "Дорогая Светлана, дарю тебе свой первый след на Луне". Впрочем, два последних слова из соображений секретности пришлось вычеркнуть. Имена земных экипажей луноходов не назывались в печати до 1993 года. В 1970 году в газете "Правда" была опубликована статья, посвященная достижениям советской космонавтики, и в ней об экипажах было сказано лишь: "…это молодые, подтянутые ребята в синих элегантных костюмах спортивного покроя со значками на отворотах рубашек, где рубиновыми буквами было написано "СССР". В фильме принимают участие создатели луноходов и ветераны воздушно-космических сил, управлявшие этими удивительными машинами.

Продолжительность: 00:39:17
Качество видео: SATRip

Видео: AVC/H.264, 778х480, ~1871 Kbps
Аудио: MP3, 2 ch, 256 Kbps, CBR
Код:
Код: Выделить всё
Общее
Полное имя                               : F:\Ю-Туб\Лунные скитальцы.avi
Формат                                   : AVI
Формат/Информация                        : Audio Video Interleave
Размер файла                             : 601 Мбайт
Продолжительность                        : 39 м.
Общий поток                              : 2139 Кбит/сек
Программа кодирования                    : Lavf56.36.100

Видео
Идентификатор                            : 1
Формат                                   : AVC
Формат/Информация                        : Advanced Video Codec
Профиль формата                          : Main@L3
Параметр CABAC формата                   : Да
Параметр ReFrames формата                : 2 кадра
Параметр GOP формата                     : M=1, N=25
Идентификатор кодека                     : H264
Продолжительность                        : 39 м.
Битрейт                                  : 1871 Кбит/сек
Ширина                                   : 778 пикселей
Высота                                   : 480 пикселей
Соотношение сторон                       : 16:10
Режим частоты кадров                     : Переменный
Частота кадров                           : 25,000 кадров/сек
Цветовое пространство                    : YUV
Субдискретизация насыщенности            : 4:2:0
Битовая глубина                          : 8 бит
Тип развёртки                            : Прогрессивная
Бит/(Пиксели*Кадры)                      : 0.200
Размер потока                            : 526 Мбайт (87%)

Аудио
Идентификатор                            : 0
Формат                                   : MPEG Audio
Версия формата                           : Version 1
Профиль формата                          : Layer 3
Режим                                    : Joint stereo
Расширение режима                        : MS Stereo
Идентификатор кодека                     : 55
Идентификатор кодека/Подсказка           : MP3
Продолжительность                        : 39 м.
Вид битрейта                             : Постоянный
Битрейт                                  : 256 Кбит/сек
Каналы                                   : 2 канала
Частота                                  : 44,1 КГц
Метод сжатия                             : С потерями
Размер потока                            : 71,9 Мбайт (12%)
Выравнивание                             : Соединение по промежуткам
Продолжительность промежутка             : 40  мс. (1,00 видеокадр)

Скриншоты:



Время раздачи: 18:00 до 23:00 (до появления первых 3-5 скачавших)
 
Не забывайте говорить Спасибо. Не уходите с раздачи!   
Торрент: Зарегистрирован [17 апр 2016, 20:25] Для скачивания .torrent
необходима регистрация
Или скачать с помощью
MediaGet
Статус:
Проверен
 
.torrent скачан: 1 раз
Хэш: 0d49bd845b8ce8ef33a3ab02530834c03b329de2
Размер: 601.01 МБ (630 208 186 байт)
Стать Автором раздачи
 
 
Раздал: 100 ГБ
Скачал: 0 байт
Ратио: Seed.
Сообщения: 82288
Зарегистрирован: 09 апр 2015, 22:31


  • Похожие торренты
    Ответы
    Просмотры
    Последнее сообщение

Вернуться в Космос (видео)

Кто сейчас на конференции

Сейчас эту тему просматривают: нет зарегистрированных пользователей и гости: 1

Ресурс не предоставляет электронные версии произведений, а занимается лишь коллекционированием и каталогизацией ссылок, присылаемых и публикуемых на форуме нашими читателями. Если вы являетесь правообладателем какого-либо представленного материала и не желаете чтобы ссылка на него находилась в нашем каталоге, свяжитесь с нами и мы незамедлительно удалим её. Файлы для обмена на трекере предоставлены пользователями сайта, и администрация не несёт ответственности за их содержание. Просьба не заливать файлы, защищенные авторскими правами, а также файлы нелегального содержания!