[Владимир Шамшурин] Легкие знакомства как привычка (Premium) [2013,RUS]

 
 Статистика раздачи 
Размер: 6.03 ГБ   |  Зарегистрирован: 12 апр 2016, 21:57   |   .torrent скачан: 27 раз
Сидеров: 38  [ 0 байт/сек ]     Личеров: 11  [ 0 байт/сек ]  
  

[Владимир Шамшурин] Легкие знакомства как привычка (Premium) [2013,RUS]

Сообщение Master Chief » 12 апр 2016, 21:57

[Владимир Шамшурин] Легкие знакомства как привычка (Premium) (2013)

Страна: Россия
Тематика: Пикап
Тип материала: Видео Семинар
Продолжительность: 16ч,26м,27с
Язык: Русский
Перевод: Не требуется
Год выпуска: 2013
Автор: Владимир Шамшурин
Сайт производителя: muzhskoy-blog.ru/treningi/legkiye-znakomstva/

Файлы примеров: присутствуют
Формат видео: MPEG-4
Видео: AVC, 1050x576, 4:2:0, 24.000 кадров/сек, 768 Кбит/сек
Аудио: AAC, 44,1 КГц, ~128 Кбит/сек, 2 канала

Что ждет тебя внутри:

Мы собрали в этом тренинге все необходимое для того, чтобы ты быстро дошел до состояния, когда знакомиться с новыми красивыми девушками каждый день и вытаскивать их на свидания – стало привычной нормой жизни для тебя.
Не важно новичок ты или уже что-то умеешь в соблазнении, мы вольем в твой мозг критический объем информации, навыков и секретных знаний после получения которых у тебя просто не будет другого выбора, кроме как идти и добиваться невероятных результатов

Развернутые Ответы И Самые эффективные модели общения по каждому из пунктов:

01 Открыть (найти девушку и начать общаться в любой ситуации: при подругах, при маме, в магазине, в метро, на улице…)
02 Комплимент (короткие комплименты, после которых она однозначно заинтересуется)
03 Остановить (как перевести процесс общения в комфортное для ТЕБЯ место и состояние)
04 Начать общение и в процессе представиться (что можно говорить, а что может все испортить)
05 Заинтересовать собой (как легко заинтересовывать их собой, своей личностью, а не цветами, ресторанами, подарками и фальшивыми комплиментами)
06 Вызвать доверие (что и как делать чтобы ей показалось что вы уже 100 лет знакомы)
07 Взять ее номер телефона (как, что, когда + обработка всех мыслимых возражений и настойчивость)
08 Попрощаться (как оставить незабываемый след после себя)
09 Вызвон (как и когда звонить и приглашать на свидание)
10 Свидание (все от А до Я. Где и как его проводить, о чем разговаривать, как и когда трогать и возбуждать. Схема – первое свидание = секс. Ошибки на свидании. Раскачка по эмоциям. Как увезти ее к себе домой. Преодоление возражений перед сексом…)
11 Отношения (как построить гармоничные отношения в которых ТЫ главный)

Ответы На Такие Вопросы Как:

01 Как перебороть страх подхода и начать знакомиться. Избавиться от эффекта «Каменных ног»
02 Что ей говорить при знакомстве
03 Как знакомиться если девушек две и более
04 Невербалика – мощнейший инструмент соблазнения. Что это?
05 Какие мужчины нравятся женщинам
06 Как понять что она в тебе заинтересована
07 В чем ошибка 99% мужчин при общении с женщинами
08 Как сделать так, чтобы ТЫ выбирал женщин, а не они тебя
09 Как преодолеть: У меня есть парень, Я не знакомлюсь, Я не даю телефон и пр.
10 Как не зацикливаться на отказах и идти дальше
11 Как изменить вбитые с детства в голову негативные установки и программы
12 Как соблазнять девушек, которые говорят что не нуждаются в мужском внимании
13 Как избавиться от мыслей – Что обо мне подумают окружающие
14 Что делать если их двое, ты знакомишься с одной, а подруга тебя сливает
15 Как мотивировать себя. Как заставить себя подойти если страшно
16 В чем миссия настоящего мужчины – самца
17 Как научиться разговаривать с девушкой ни о чем, чтобы ей при этом нравилось
- Легкие знакомства как привычка(1-9 Видео)
- Секс на первом свидании
- Знакомлюсь. Провожу свидания. До секса так и не доходит
- Как соблазнить девушку, которую ты уже знаешь
- Кокон
- МУЖСКОЕ СЧАСТЬЕ. Как построить гармоничные отношения
General
Complete name : 1.mp4
Format : MPEG-4
Format profile : Base Media
Codec ID : isom
File size : 629 MiB
Duration : 1h 36mn
Overall bit rate mode : Variable
Overall bit rate : 907 Kbps
Encoded date : UTC 1970-01-01 00:00:00
Tagged date : UTC 1970-01-01 00:00:00

Video
ID : 1
Format : AVC
Format/Info : Advanced Video Codec
Format profile : [email protected]
Format settings, CABAC : Yes
Format settings, ReFrames : 2 frames
Codec ID : avc1
Codec ID/Info : Advanced Video Coding
Duration : 1h 36mn
Bit rate : 768 Kbps
Width : 1050 pixels
Height : 576 pixels
Display aspect ratio : 1.85:1
Frame rate mode : Constant
Frame rate : 24.000 fps
Color space : YUV
Chroma subsampling : 4:2:0
Bit depth : 8 bits
Scan type : Progressive
Bits/(Pixel*Frame) : 0.077
Stream size : 536 MiB (85%)
Writing library : x264 core 98 r0+1643 0cd5d69
Encoded date : UTC 1970-01-01 00:00:00
Tagged date : UTC 1970-01-01 00:00:00

Audio
ID : 2
Format : AAC
Format/Info : Advanced Audio Codec
Format profile : LC
Codec ID : 40
Duration : 1h 36mn
Bit rate mode : Variable
Bit rate : 128 Kbps
Channel(s) : 2 channels
Channel positions : Front: L R
Sampling rate : 44.1 KHz
Compression mode : Lossy
Stream size : 88.7 MiB (14%)
Language : English
Encoded date : UTC 1970-01-01 00:00:00
Tagged date : UTC 1970-01-01 00:00:00
 
Не забывайте говорить Спасибо. Не уходите с раздачи!   
Торрент: Зарегистрирован [12 апр 2016, 21:57] Для скачивания .torrent
необходима регистрация
Или скачать с помощью
MediaGet
Статус:
Проверен
 
.torrent скачан: 27 раз
Хэш: f3773e61b99ceca0e5f8d3bcb67014aa853080dc
Размер: 6.03 ГБ (6 476 137 748 байт)
Стать Автором раздачи
 
Аватара пользователя
Администратор
Администратор
 
Раздал: 43.56 ТБ
Скачал: 67.22 ТБ
Ратио: 0.648
Сообщения: 76573
Зарегистрирован: 07 янв 2011, 16:36


  • Похожие торренты
    Ответы
    Просмотры
    Последнее сообщение

Вернуться в Пикап, знакомства

Кто сейчас на конференции

Сейчас эту тему просматривают: нет зарегистрированных пользователей и гости: 1

Ресурс не предоставляет электронные версии произведений, а занимается лишь коллекционированием и каталогизацией ссылок, присылаемых и публикуемых на форуме нашими читателями. Если вы являетесь правообладателем какого-либо представленного материала и не желаете чтобы ссылка на него находилась в нашем каталоге, свяжитесь с нами и мы незамедлительно удалим её. Файлы для обмена на трекере предоставлены пользователями сайта, и администрация не несёт ответственности за их содержание. Просьба не заливать файлы, защищенные авторскими правами, а также файлы нелегального содержания!