Джеймс Рэнди - Сон разума / James Randi - Sleep of Reason (2010) WEBRip [H.264] [MP4|1280x720]

 
 Статистика раздачи 
Размер: 491.16 МБ   |  Зарегистрирован: 11 апр 2016, 19:55   |   .torrent скачан: 0 раз
Сидеров: 1  [ 0 байт/сек ]     Личеров: 0  [ 0 байт/сек ]  
  

Джеймс Рэнди - Сон разума / James Randi - Sleep of Reason (2010) WEBRip [H.264] [MP4|1280x720]

Сообщение aLaVodka » 11 апр 2016, 19:55

Джеймс Рэнди - Сон разума / James Randi - Sleep of Reason (2010) WEBRip

Жанр: Документальный, Лекция

Ведущий: Джеймс Рэнди

Описание:
9-ого июня 2010 года всемирно известный маг,скептик Джеймс Рэнди посетил Хельсинки, Финляндия.
Многие люди хотя бы раз в жизни были обмануты шарлатанами, скрывающимися под множеством обличий — от экстрасенсов и врачевателей до учёных и производителей товаров, якобы предназначенных для разоблачения мошенников. Принимая по ходу действия смертельную дозу гомеопатического препарата, лектор выступает в своём фирменном стиле: пара трюков — и зрительный зал уже оставлен в дураках. Но не стоит переживать, ведь такое случается даже с искушёнными в науках людьми. Вместе с Дж. Рэнди надеемся, что эта лекция поможет вам стать менее легковерными.

Качество видео: WEBRip
Перевод Одноголосый закадровый

Видео: AVC/H.264, 1280x720, ~1046 Кбит/сек
Аудио: AAC, 2 ch, 192 Кбит/сек
Код:
Код: Выделить всё
Формат                                   : MPEG-4
Профиль формата                          : Base Media
Идентификатор кодека                     : isom (isom/iso2/avc1/mp41)
Размер файла                             : 491 Мбайт
Продолжительность                        : 55 м.
Общий поток                              : 1243 Кбит/сек
Программа кодирования                    : Lavf56.25.101

Видео
Идентификатор                            : 1
Формат                                   : AVC
Формат/Информация                        : Advanced Video Codec
Профиль формата                          :
Параметр CABAC формата                   : Да
Параметр ReFrames формата                : 1 кадр
Идентификатор кодека                     : avc1
Идентификатор кодека/Информация          : Advanced Video Coding
Продолжительность                        : 55 м.
Битрейт                                  : 1046 Кбит/сек
Ширина                                   : 1280 пикселей
Высота                                   : 720 пикселей
Соотношение сторон                       : 16:9
Режим частоты кадров                     : Постоянный
Частота кадров                           : 25,000 кадров/сек
Цветовое пространство                    : YUV
Субдискретизация насыщенности            : 4:2:0
Битовая глубина                          : 8 бит
Тип развёртки                            : Прогрессивная
Бит/(Пиксели*Кадры)                      : 0.045
Размер потока                            : 413 Мбайт (84%)

Аудио
Идентификатор                            : 2
Формат                                   : AAC
Формат/Информация                        : Advanced Audio Codec
Профиль формата                          : LC
Идентификатор кодека                     : 40
Продолжительность                        : 55 м.
Вид битрейта                             : Постоянный
Битрейт                                  : 192 Кбит/сек
Каналы                                   : 2 канала
Расположение каналов                     : Front: L R
Частота                                  : 44,1 КГц
Частота кадров                           : 43,066 кадра/сек (1024 spf)
Метод сжатия                             : С потерями
Размер потока                            : 75,9 Мбайт (15%)
Язык                                     : English
Default                                  : Да
Alternate group                          : 1

Скриншоты:



Время раздачи: до появления первых 3-5 скачавших
 
Не забывайте говорить Спасибо. Не уходите с раздачи!   
Торрент: Зарегистрирован [11 апр 2016, 19:55] Для скачивания .torrent
необходима регистрация
Или скачать с помощью
MediaGet
Статус:
Проверен
 
.torrent скачан: 0 раз
Хэш: 44a9fad47290aca6923044f83de3c4c8a3873621
Размер: 491.16 МБ (515 021 479 байт)
Стать Автором раздачи
 
 
Раздал: 100 ГБ
Скачал: 0 байт
Ратио: Seed.
Сообщения: 189140
Зарегистрирован: 09 апр 2015, 20:00


  • Похожие торренты
    Ответы
    Просмотры
    Последнее сообщение

Вернуться в Видео для мобильных устройств

Ресурс не предоставляет электронные версии произведений, а занимается лишь коллекционированием и каталогизацией ссылок, присылаемых и публикуемых на форуме нашими читателями. Если вы являетесь правообладателем какого-либо представленного материала и не желаете чтобы ссылка на него находилась в нашем каталоге, свяжитесь с нами и мы незамедлительно удалим её. Файлы для обмена на трекере предоставлены пользователями сайта, и администрация не несёт ответственности за их содержание. Просьба не заливать файлы, защищенные авторскими правами, а также файлы нелегального содержания!
cron