В.Г. Сурдин. Лекция "НЛО: готовимся к встрече" (2015) WEBRip [H.264] [MP4|640x360]

 
 Статистика раздачи 
Размер: 243.35 МБ   |  Зарегистрирован: 11 апр 2016, 19:54   |   .torrent скачан: 0 раз
Сидеров: 1  [ 0 байт/сек ]     Личеров: 0  [ 0 байт/сек ]  
  

В.Г. Сурдин. Лекция "НЛО: готовимся к встрече" (2015) WEBRip [H.264] [MP4|640x360]

Сообщение aLaVodka » 11 апр 2016, 19:54

В.Г. Сурдин. Лекция "НЛО: готовимся к встрече" (2015) WEBRip

Жанр: Документальный, Лекция

Ведущий: В. Г. Сурдин

Описание:
Полная версия лекции известного популяризатора науки, астронома, кандидата физико-математических наук, ГАИШ МГУ, лауреата премии «Просветитель» в области научно-популярной литературы сезона 2012г., Владимир Георгиевича Сурдина на тему "НЛО: готовимся к встрече"

Качество видео: WEBRip

Видео: AVC/H.264, 640x360, ~1418 Кбит/сек
Аудио: AAC, 2 ch, 96,0 Кбит/сек, VBR
Код:
Код: Выделить всё
Формат                                   : MPEG-4
Профиль формата                          : Base Media / Version 2
Идентификатор кодека                     : mp42 (isom/mp42)
Размер файла                             : 243 Мбайт
Продолжительность                        : 1 ч. 33 м.
Режим общего битрейта                    : Переменный
Общий поток                              : 363 Кбит/сек
Дата кодирования                         : UTC 2015-10-09 10:31:15
Дата пометки                             : UTC 2015-10-09 10:31:15
gsst                                     : 0
gstd                                     : 5626936

Видео
Идентификатор                            : 1
Формат                                   : AVC
Формат/Информация                        : Advanced Video Codec
Профиль формата                          : Baseline@L3
Параметр CABAC формата                   : Нет
Параметр ReFrames формата                : 1 кадр
Параметр GOP формата                     : M=1, N=60
Идентификатор кодека                     : avc1
Идентификатор кодека/Информация          : Advanced Video Coding
Продолжительность                        : 1 ч. 33 м.
Битрейт                                  : 264 Кбит/сек
Максимальный битрейт                     : 1418 Кбит/сек
Ширина                                   : 640 пикселей
Высота                                   : 360 пикселей
Соотношение сторон                       : 16:9
Режим частоты кадров                     : Постоянный
Частота кадров                           : 25,000 кадров/сек
Цветовое пространство                    : YUV
Субдискретизация насыщенности            : 4:2:0
Битовая глубина                          : 8 бит
Тип развёртки                            : Прогрессивная
Бит/(Пиксели*Кадры)                      : 0.046
Размер потока                            : 177 Мбайт (73%)
Дата пометки                             : UTC 2015-10-09 10:32:38

Аудио
Идентификатор                            : 2
Формат                                   : AAC
Формат/Информация                        : Advanced Audio Codec
Профиль формата                          : LC
Идентификатор кодека                     : 40
Продолжительность                        : 1 ч. 33 м.
Вид битрейта                             : Переменный
Битрейт                                  : 96,0 Кбит/сек
Максимальный битрейт                     : 103 Кбит/сек
Каналы                                   : 2 канала
Расположение каналов                     : Front: L R
Частота                                  : 44,1 КГц
Частота кадров                           : 43,066 кадра/сек (1024 spf)
Метод сжатия                             : С потерями
Размер потока                            : 64,4 Мбайт (26%)

Скриншоты:



Время раздачи: до появления первых 3-5 скачавших
 
Не забывайте говорить Спасибо. Не уходите с раздачи!   
Торрент: Зарегистрирован [11 апр 2016, 19:54] Для скачивания .torrent
необходима регистрация
Или скачать с помощью
MediaGet
Статус:
Проверен
 
.torrent скачан: 0 раз
Хэш: e9f430b358a5a06ff1996c675dbcfe7c370501ff
Размер: 243.35 МБ (255 167 527 байт)
Стать Автором раздачи
 
 
Раздал: 100 ГБ
Скачал: 0 байт
Ратио: Seed.
Сообщения: 189122
Зарегистрирован: 09 апр 2015, 20:00


  • Похожие торренты
    Ответы
    Просмотры
    Последнее сообщение

Вернуться в Видео для мобильных устройств

Ресурс не предоставляет электронные версии произведений, а занимается лишь коллекционированием и каталогизацией ссылок, присылаемых и публикуемых на форуме нашими читателями. Если вы являетесь правообладателем какого-либо представленного материала и не желаете чтобы ссылка на него находилась в нашем каталоге, свяжитесь с нами и мы незамедлительно удалим её. Файлы для обмена на трекере предоставлены пользователями сайта, и администрация не несёт ответственности за их содержание. Просьба не заливать файлы, защищенные авторскими правами, а также файлы нелегального содержания!
cron