100 / Сотня / The 100 (2016) WEB-DLRip [H.264] (сезон 3, серии 1-10 из 16) BaibaKo [MP4|720x400]

 
 Статистика раздачи 
Размер: 5.51 ГБ   |  Зарегистрирован: 10 апр 2016, 10:05   |   .torrent скачан: 0 раз
Сидеров: 1  [ 0 байт/сек ]     Личеров: 0  [ 0 байт/сек ]  
  

100 / Сотня / The 100 (2016) WEB-DLRip [H.264] (сезон 3, серии 1-10 из 16) BaibaKo [MP4|720x400]

Сообщение Master Chief » 10 апр 2016, 10:05

100 / Сотня / The 100 (2016) WEB-DLRip (сезон 3, серии 1-10 из 16) BaibaKo
«Survival isn't who you are. It's who you become»

Производство: США
Жанр: Фантастика, Драма, Приключения

Режиссер: Дин Уайт, Джон Беринг, Милан Чейлов
Актеры: Элиза Тейлор-Коттер, Мари Авгеропулос, Сачин Сахель, Линдси Морган, Женевьев Бюкнер, Ричард Хэрмон, Джарод Джозеф, Челси Рейст, Крис Браунинг, Джош Ссеттуба и др.

Описание:
События в сериале начинают разворачиваться по прошествии девяносто семи лет после того как всю цивилизацию уничтожила страшная атомная война. Высоко в космосе на орбите Земли летает большой космический корабль, именно здесь находятся те, кто выжил после страшной катастрофы. Они единственные кто пережил этот ужасный катаклизм который устроило человечество. Именно с этого последнего пристанища людей на Землю отправляют космический челнок на котором находятся сто малолетних преступников…



Продолжительность: ~ 00:43:00 серия
Качество видео: WEB-DLRip
Перевод: Многоголосый закадровый, профессиональный - BaibaKo
Автор перевода: Татьяна Saavick
Озвучка: Лира Грим, Anna_Smile, Олекса Мельник и Сергей Корчак
Реклама: присутствуют видео, голосовые и текстовые вставки рекламы

Видео: AVC/H.264 (Baseline@L3.0), 720x400 (16:9), ~1536 Кбит/сек
Аудио #1: AAC, 2 канала, 160 Кбит/сек - русский (многоголосый закадровый)
Аудио #2: AAC, 2 канала, 160 Кбит/сек - английский (оригинальный)
Код:
Код: Выделить всё
Полное имя                               : D:\The_Hundred_s3_WEB-DLRip_x264_BaibaKo_[NNM-CLUB]\The100.s03e01.WEB-DLRip.x264.Rus.Eng.BaibaKo.tv.mp4
Формат                                   : MPEG-4
Профиль формата                          : Base Media
Идентификатор кодека                     : isom
Размер файла                             : 567 Мбайт
Продолжительность                        : 42 м.
Режим общего битрейта                    : Переменный
Общий поток                              : 1860 Кбит/сек
Дата кодирования                         : UTC 2016-01-23 02:16:22
Дата пометки                             : UTC 2016-01-23 02:16:22

Видео
Идентификатор                            : 1
Формат                                   : AVC
Формат/Информация                        : Advanced Video Codec
Профиль формата                          :
Параметр CABAC формата                   : Нет
Параметр ReFrames формата                : 3 кадра
Идентификатор кодека                     : avc1
Идентификатор кодека/Информация          : Advanced Video Coding
Продолжительность                        : 42 м.
Битрейт                                  : 1536 Кбит/сек
Максимальный битрейт                     : 7996 Кбит/сек
Ширина                                   : 720 пикселей
Высота                                   : 400 пикселей
Соотношение сторон                       : 16:9
Режим частоты кадров                     : Переменный
Частота кадров                           : 23,976 кадра/сек
Минимальная частота кадров               : 23,974 кадра/сек
Максимальная частота кадров              : 23,981 кадра/сек
Цветовое пространство                    : YUV
Субдискретизация насыщенности            : 4:2:0
Битовая глубина                          : 8 бит
Тип развёртки                            : Прогрессивная
Бит/(Пиксели*Кадры)                      : 0.222
Размер потока                            : 468 Мбайт (83%)
Библиотека кодирования                   : x264 core 142 r2479 dd79a61
Настройки программы                      : cabac=0 / ref=3 / deblock=1:0:0 / analyse=0x1:0x111 / me=hex / subme=7 / psy=1 / psy_rd=1.00:0.00 / mixed_ref=1 / me_range=16 / chroma_me=1 / trellis=1 / 8x8dct=0 / cqm=0 / deadzone=21,11 / fast_pskip=1 / chroma_qp_offset=-2 / threads=12 / lookahead_threads=2 / sliced_threads=0 / nr=0 / decimate=1 / interlaced=0 / bluray_compat=0 / constrained_intra=0 / bframes=0 / weightp=0 / keyint=240 / keyint_min=24 / scenecut=40 / intra_refresh=0 / rc_lookahead=40 / rc=2pass / mbtree=1 / bitrate=1536 / ratetol=1.0 / qcomp=0.60 / qpmin=0 / qpmax=69 / qpstep=4 / cplxblur=20.0 / qblur=0.5 / vbv_maxrate=10000 / vbv_bufsize=10000 / nal_hrd=none / filler=0 / ip_ratio=1.40 / aq=1:1.00
Дата кодирования                         : UTC 2036-02-06 06:28:16
Дата пометки                             : UTC 2016-01-23 02:16:30
Основные цвета                           : BT.709
Характеристики трансфера                 : BT.709
Коэффициенты матрицы                     : BT.709

Аудио #1
Идентификатор                            : 2
Формат                                   : AAC
Формат/Информация                        : Advanced Audio Codec
Профиль формата                          : LC
Идентификатор кодека                     : 40
Продолжительность                        : 42 м.
Вид битрейта                             : Переменный
Битрейт                                  : 160 Кбит/сек
Максимальный битрейт                     : 168 Кбит/сек
Каналы                                   : 2 канала
Расположение каналов                     : Front: L R
Частота                                  : 48,0 КГц
Метод сжатия                             : С потерями
Размер потока                            : 48,7 Мбайт (9%)
Язык                                     : Russian
Дата кодирования                         : UTC 2016-01-23 02:16:27
Дата пометки                             : UTC 2016-01-23 02:16:30

Аудио #2
Идентификатор                            : 3
Формат                                   : AAC
Формат/Информация                        : Advanced Audio Codec
Профиль формата                          : LC
Идентификатор кодека                     : 40
Продолжительность                        : 42 м.
Вид битрейта                             : Переменный
Битрейт                                  : 160 Кбит/сек
Максимальный битрейт                     : 168 Кбит/сек
Каналы                                   : 2 канала
Расположение каналов                     : Front: L R
Частота                                  : 48,0 КГц
Метод сжатия                             : С потерями
Размер потока                            : 48,7 Мбайт (9%)
Язык                                     : English
Дата кодирования                         : UTC 2016-01-23 02:16:29
Дата пометки                             : UTC 2016-01-23 02:16:30
01. Wanheda: Part 1 / Ванхеда ч.1
02. Wanheda: Part 2 / Ванхеда ч.2
03. Ye Who Enter Here / Всяк сюда входящий
04. Watch the Thrones / Битва за трон
05. Hakeldama / Хакелдама
06. Bitter Harvest / Горький урожай
07. Thirteen / Тринадцать
08. Terms and Conditions / Постановления и условия
09. Stealing Fire / Похищая огонь
10. Fallen / Падение
11. Nevermore
12. Demons
13. Join or Die
...
Внимание! Раздача ведётся путём добавления новых серий; при каждом добавлении создаётся новый торрент.
Чтобы начать докачку новой серии, пользователям необходимо сделать следующее:
1. Остановить скачивание;
2. Удалить старый торрент у себя из клиента (старые серии удалять не надо);
3. Скачать новый торрент и запустить его у себя в клиенте вместо старого, при этом указать клиенту путь в старую папку куда и должно происходить скачивание новых серий. Ваш клиент при этом должен произвести хеширование (проверку) старой папки и будет докачивать только те серии, которых у вас ещё нет. Старые серии при этом не удаляются, а продолжают раздаваться! Eсли вы уже удалили старые серии, то предотвратить повторную закачку старых серий можно, отжав галочку в соответствующих местах при запуске нового торрента.

Скриншоты:




Время раздачи:
24/7 - круглосуточно
(до первых 5-ти сидов - потом по возможности)
 
Не забывайте говорить Спасибо. Не уходите с раздачи!   
Торрент: Зарегистрирован [10 апр 2016, 10:05] Для скачивания .torrent
необходима регистрация
Или скачать с помощью
MediaGet
Статус:
Проверен
 
.torrent скачан: 0 раз
Хэш: b79e2baea31087cf5cc86783acefb6291b1ea4b9
Размер: 5.51 ГБ (5 915 708 884 байт)
Стать Автором раздачи
 
Аватара пользователя
Администратор
Администратор
 
Раздал: 56.73 ТБ
Скачал: 79.93 ТБ
Ратио: 0.710
Сообщения: 76582
Зарегистрирован: 07 янв 2011, 16:36


  • Похожие торренты
    Ответы
    Просмотры
    Последнее сообщение

Вернуться в Видео для мобильных устройств

Ресурс не предоставляет электронные версии произведений, а занимается лишь коллекционированием и каталогизацией ссылок, присылаемых и публикуемых на форуме нашими читателями. Если вы являетесь правообладателем какого-либо представленного материала и не желаете чтобы ссылка на него находилась в нашем каталоге, свяжитесь с нами и мы незамедлительно удалим её. Файлы для обмена на трекере предоставлены пользователями сайта, и администрация не несёт ответственности за их содержание. Просьба не заливать файлы, защищенные авторскими правами, а также файлы нелегального содержания!
cron