Кин-дза-дза! (1986) HDRip [H.264][MP4|720х528]

 
 Статистика раздачи 
Размер: 2.33 ГБ   |  Зарегистрирован: 09 апр 2016, 21:01   |   .torrent скачан: 0 раз
Сидеров: 1  [ 0 байт/сек ]     Личеров: 0  [ 0 байт/сек ]  
  

Кин-дза-дза! (1986) HDRip [H.264][MP4|720х528]

Сообщение explosiveone » 09 апр 2016, 21:01

Кин-дза-дза! (1986) HDRip

Производство: СССР / Мосфильм
Жанр: Фантастика, Драма, Комедия

Режиссер: Георгий Данелия
Актеры: Станислав Любшин, Евгений Леонов, Юрий Яковлев, Леван Габриадзе, Ольга Машная, Ирина Шмелёва, Лев Перфилов, Георгий Данелия, Александра Дорохина, Галина Данелия-Юркова, Валентин Маренков, Владимир Фёдоров, Людмила Солоденко, Александр Горбачев, Леонид Машков, Нина Тер-Осипян, Татьяна Распутина, Виктор Махмутов, Александр Литовкин

Описание:
Прораб Владимир Николаевич Машков и не подозревал, что обычный путь до универсама за хлебом и макаронами обернется межгалактическими путешествиями. А все эта встреча со студентом в кроличьей шапке с большой сумкой и странным типом с каким-то маленьким устройством - «машинкой перемещения», как он ее сам называл.
Короче, нажал на кнопку — и оказался вместе с молодым человеком в пустыне, и не в каких-нибудь Каракумах, а на планете-пустыне Плюк в тентуре, галактика Кин-дза-дза в спирали...


Возраст: 0+ (для любой зрительской аудитории)

Продолжительность: ~ 01:06:20 серия
Качество видео: HDRip

Видео: AVC/H.264, 720х528 pixels, ~2345 Kbps
Аудио: AAC, 2 ch, 160 Kbps - Русский (оригинальный)
Параметры кодирования: Идентичны
Код:
Код: Выделить всё
General
Complete name               : Кин-дза-дза! (1986)\01. Кин-дза-дза! (1986).mp4
Format                      : MPEG-4
Format profile              : Base Media
Codec ID                    : isom
File size                   : 1.16 GiB
Duration                    : 1h 6mn
Overall bit rate            : 2 510 Kbps
Movie name                  : 01. Кин-дза-дза! (1986) [NoNaMe-Club rip by alien.09]
Encoded date                : UTC 2016-04-09 00:12:38
Tagged date                 : UTC 2016-04-09 00:12:38

Video
ID                          : 1
Format                      : AVC
Format/Info                 : Advanced Video Codec
Format profile              :
Format settings, CABAC      : Yes
Format settings, ReFrames   : 3 frames
Codec ID                    : avc1
Codec ID/Info               : Advanced Video Coding
Duration                    : 1h 6mn
Bit rate                    : 2 345 Kbps
Width                       : 720 pixels
Height                      : 528 pixels
Display aspect ratio        : 1.375
Frame rate mode             : Constant
Frame rate                  : 23.976 fps
Color space                 : YUV
Chroma subsampling          : 4:2:0
Bit depth                   : 8 bits
Scan type                   : Progressive
Bits/(Pixel*Frame)          : 0.257
Stream size                 : 1.08 GiB (93%)
Writing library             : x264 core 128 r2216M 198a7ea
Encoding settings           : cabac=1 / ref=3 / deblock=1:-1:-1 / analyse=0x1:0x131 / me=hex / subme=7 / psy=1 / psy_rd=0.40:0.15 / mixed_ref=1 / me_range=16 / chroma_me=1 / trellis=1 / 8x8dct=0 / cqm=0 / deadzone=21,11 / fast_pskip=1 / chroma_qp_offset=-3 / threads=8 / lookahead_threads=1 / sliced_threads=0 / nr=0 / decimate=1 / interlaced=0 / bluray_compat=0 / constrained_intra=0 / bframes=3 / b_pyramid=0 / b_adapt=2 / b_bias=0 / direct=3 / weightb=1 / open_gop=0 / weightp=0 / keyint=230 / keyint_min=23 / scenecut=40 / intra_refresh=0 / rc_lookahead=40 / rc=2pass / mbtree=1 / bitrate=2345 / ratetol=1.0 / qcomp=0.60 / qpmin=10 / qpmax=51 / qpstep=4 / cplxblur=20.0 / qblur=0.5 / vbv_maxrate=5000 / vbv_bufsize=1835 / nal_hrd=none / ip_ratio=1.40 / aq=1:0.60
Language                    : Russian
Encoded date                : UTC 2016-04-09 00:12:38
Tagged date                 : UTC 2016-04-09 00:12:38

Audio
ID                          : 2
Format                      : AAC
Format/Info                 : Advanced Audio Codec
Format profile              : LC
Codec ID                    : 40
Duration                    : 1h 6mn
Bit rate mode               : Constant
Bit rate                    : 160 Kbps
Channel(s)                  : 2 channels
Channel positions           : Front: L R
Sampling rate               : 48.0 KHz
Compression mode            : Lossy
Stream size                 : 75.8 MiB (6%)
Language                    : Russian
Encoded date                : UTC 2016-04-09 00:12:38
Tagged date                 : UTC 2016-04-09 00:12:38

Скриншоты:




Время раздачи:
24/7 (до появления первых 3-5 скачавших)
 
Не забывайте говорить Спасибо. Не уходите с раздачи!   
Торрент: Зарегистрирован [09 апр 2016, 21:01] Для скачивания .torrent
необходима регистрация
Или скачать с помощью
MediaGet
Статус:
Проверен
 
.torrent скачан: 0 раз
Хэш: 09fb268c0bcb23c93b5c35229e0819e531a7ad6c
Размер: 2.33 ГБ (2 497 342 797 байт)
Стать Автором раздачи
 
 
Раздал: 100 ГБ
Скачал: 0 байт
Ратио: Seed.
Сообщения: 94127
Зарегистрирован: 09 апр 2015, 22:31


  • Похожие торренты
    Ответы
    Просмотры
    Последнее сообщение

Вернуться в Видео для мобильных устройств

Ресурс не предоставляет электронные версии произведений, а занимается лишь коллекционированием и каталогизацией ссылок, присылаемых и публикуемых на форуме нашими читателями. Если вы являетесь правообладателем какого-либо представленного материала и не желаете чтобы ссылка на него находилась в нашем каталоге, свяжитесь с нами и мы незамедлительно удалим её. Файлы для обмена на трекере предоставлены пользователями сайта, и администрация не несёт ответственности за их содержание. Просьба не заливать файлы, защищенные авторскими правами, а также файлы нелегального содержания!
cron