Джакомо Пуччини - Мадам Баттерфляй / Giacomo Puccini - Madama Butterfly (Кристине Ополайс / Kristine Opolais, Роберто Аланья / Roberto Alagna, Мария Зифчак / Maria Zifchak, Энтони Мингелла / Anthony Minghel, Karel Mark Chichon) [2016, opera, HDTVRip]

 
 Статистика раздачи 
Размер: 2.16 ГБ   |  Зарегистрирован: 06 апр 2016, 12:39   |   .torrent скачан: 5 раз
Сидеров: 14  [ 0 байт/сек ]     Личеров: 2  [ 0 байт/сек ]  
  

Джакомо Пуччини - Мадам Баттерфляй / Giacomo Puccini - Madama Butterfly (Кристине Ополайс / Kristine Opolais, Роберто Аланья / Roberto Alagna, Мария Зифчак / Maria Zifchak, Энтони Мингелла / Anthony Minghel, Karel Mark Chichon) [2016, opera, HDTVRip]

Сообщение Master Chief » 06 апр 2016, 12:39

Джакомо Пуччини - Мадам Баттерфляй / Giacomo Puccini - Madama Butterfly

Год выпуска: 2016

Место и дата исполнения: Metropolitan Opera 02.04.2016
Лейбл: MET Live in HD
Страна-производитель: USA
Жанр: opera
Продолжительность: 3:01:13
Язык: итальянский
Субтитры: Eng, Rus, Fre, Ger, Spa, Swe в составе контейнерв
Режиссер: Энтони Мингелла / Anthony Minghella
Исполнители: Чио-Чио-Сан – Кристине Ополайс / Kristine Opolais
Сузуки– Мария Зифчак / Maria Zifchak
Пинкертон – Роберто Аланья / Roberto Alagna
Шарплес – Дуэйн Крофт / Dwayne Croft
Дирижер: Karel Mark Chichon

Доп. информация: Спасибо Mauricelugher за запись исходника!
Качество видео: HDTVRip-AVC
Формат/Контейнер: MKV
Видео кодек: H.264
Аудио кодек: MP2
Видео поток: 960x540 25fps 1 138 Kbps
Аудио поток: 48000Hz 6ch 448 Kbps
Format : Matroska
Format version : Version 4 / Version 2
File size : 746 MiB
Duration : 1h 4mn
Overall bit rate : 1 618 Kbps
Encoded date : UTC 2016-04-06 07:12:49
Writing application : mkvmerge v9.0.1 ('Obstacles') 64bit
Writing library : libebml v1.3.3 + libmatroska v1.4.4
DURATION : 00:44:48.026000000
NUMBER_OF_FRAMES : 252
NUMBER_OF_BYTES : 9761
_STATISTICS_WRITING_APP : mkvmerge v9.0.1 ('Obstacles') 64bit
_STATISTICS_WRITING_DATE_UTC : 2016-04-06 07:12:49
_STATISTICS_TAGS : BPS DURATION NUMBER_OF_FRAMES NUMBER_OF_BYTES

Video
ID : 1
Format : AVC
Format/Info : Advanced Video Codec
Format profile : High@L4.1
Format settings, CABAC : Yes
Format settings, ReFrames : 8 frames
Codec ID : V_MPEG4/ISO/AVC
Duration : 1h 4mn
Bit rate : 1 138 Kbps
Width : 960 pixels
Height : 540 pixels
Display aspect ratio : 16:9
Frame rate mode : Constant
Frame rate : 25.000 fps
Color space : YUV
Chroma subsampling : 4:2:0
Bit depth : 8 bits
Scan type : Progressive
Bits/(Pixel*Frame) : 0.088
Stream size : 525 MiB (70%)
Writing library : x264 core 125 r2208 d9d2288
Encoding settings : cabac=1 / ref=8 / deblock=1:-1:-1 / analyse=0x3:0x133 / me=umh / subme=9 / psy=1 / psy_rd=1.00:0.10 / mixed_ref=1 / me_range=24 / chroma_me=1 / trellis=2 / 8x8dct=1 / cqm=0 / deadzone=21,11 / fast_pskip=1 / chroma_qp_offset=-3 / threads=6 / lookahead_threads=1 / sliced_threads=0 / nr=0 / decimate=1 / interlaced=0 / bluray_compat=0 / constrained_intra=0 / bframes=6 / b_pyramid=2 / b_adapt=2 / b_bias=0 / direct=3 / weightb=1 / open_gop=0 / weightp=2 / keyint=250 / keyint_min=25 / scenecut=40 / intra_refresh=0 / rc_lookahead=60 / rc=crf / mbtree=1 / crf=19.0 / qcomp=0.60 / qpmin=0 / qpmax=69 / qpstep=4 / ip_ratio=1.40 / aq=1:1.00
Default : Yes
Forced : No

Audio
ID : 2
Format : AC-3
Format/Info : Audio Coding 3
Mode extension : CM (complete main)
Format settings, Endianness : Big
Codec ID : A_AC3
Duration : 1h 4mn
Bit rate mode : Constant
Bit rate : 448 Kbps
Channel(s) : 6 channels
Channel positions : Front: L C R, Side: L R, LFE
Sampling rate : 48.0 KHz
Bit depth : 16 bits
Compression mode : Lossy
Stream size : 207 MiB (28%)
Language : English
Default : Yes
Forced : No

Text #1
ID : 3
Format : UTF-8
Codec ID : S_TEXT/UTF8
Codec ID/Info : UTF-8 Plain Text
Language : Russian
Default : Yes
Forced : No

Text #2
ID : 4
Format : UTF-8
Codec ID : S_TEXT/UTF8
Codec ID/Info : UTF-8 Plain Text
Language : English
Default : No
Forced : No

Text #3
ID : 5
Format : UTF-8
Codec ID : S_TEXT/UTF8
Codec ID/Info : UTF-8 Plain Text
Language : French
Default : No
Forced : No

Text #4
ID : 6
Format : UTF-8
Codec ID : S_TEXT/UTF8
Codec ID/Info : UTF-8 Plain Text
Language : German
Default : No
Forced : No

Text #5
ID : 7
Format : UTF-8
Codec ID : S_TEXT/UTF8
Codec ID/Info : UTF-8 Plain Text
Language : Spanish
Default : No
Forced : No

Text #6
ID : 8
Format : UTF-8
Codec ID : S_TEXT/UTF8
Codec ID/Info : UTF-8 Plain Text
Language : Swedish
Default : No
Forced : No
 
Не забывайте говорить Спасибо. Не уходите с раздачи!   
Торрент: Зарегистрирован [06 апр 2016, 12:39] Для скачивания .torrent
необходима регистрация
Или скачать с помощью
MediaGet
Статус:
Проверен
 
.torrent скачан: 5 раз
Хэш: 1c9e5b0f935085a9f2a2e7ad6f512e0da9839bc7
Размер: 2.16 ГБ (2 322 077 755 байт)
Стать Автором раздачи
 
Аватара пользователя
Администратор
Администратор
 
Раздал: 49.06 ТБ
Скачал: 71.78 ТБ
Ратио: 0.683
Сообщения: 76574
Зарегистрирован: 07 янв 2011, 16:36


  • Похожие торренты
    Ответы
    Просмотры
    Последнее сообщение

Вернуться в Опера (Видео)

Кто сейчас на конференции

Сейчас эту тему просматривают: нет зарегистрированных пользователей и гости: 1

Ресурс не предоставляет электронные версии произведений, а занимается лишь коллекционированием и каталогизацией ссылок, присылаемых и публикуемых на форуме нашими читателями. Если вы являетесь правообладателем какого-либо представленного материала и не желаете чтобы ссылка на него находилась в нашем каталоге, свяжитесь с нами и мы незамедлительно удалим её. Файлы для обмена на трекере предоставлены пользователями сайта, и администрация не несёт ответственности за их содержание. Просьба не заливать файлы, защищенные авторскими правами, а также файлы нелегального содержания!