Сталин - В цвете / Stalin - In Color (Мэтью Шварц / Mathieu Schwartz) [2015, научно-популярное кино, HDTVRip]

 
 Статистика раздачи 
Размер: 1015.16 МБ   |  Зарегистрирован: 05 апр 2016, 21:03   |   .torrent скачан: 1 раз
Сидеров: 1  [ 0 байт/сек ]     Личеров: 0  [ 0 байт/сек ]  
  

Сталин - В цвете / Stalin - In Color (Мэтью Шварц / Mathieu Schwartz) [2015, научно-популярное кино, HDTVRip]

Сообщение Thistoll » 05 апр 2016, 21:03

Сталин - В цвете / Stalin - In Color

Год выпуска: 2015
Страна: Франция
Студия: C. Productions
Жанр: научно-популярное кино
Продолжительность: 00:53:36
Перевод: Одноголосый закадровый
Доп. инфо о переводе: johny4545
Русские субтитры: нет

Режиссер: Мэтью Шварц / Mathieu Schwartz

Описание: Со дня смерти Иосифа Сталина прошло более полувека. Однако его реальная личность по сей день скрыта от нас пеленой многочисленных, противоречивых мифов. В этом фильме собраны немногочисленные кадры цветной съёмки времён его правления.

Сэмпл: http://multi-up.com/1087463

Тип релиза: HDTVRip
Контейнер: AVI

Видео: H264, 704х400, 1.76:1, 29,970 fps, 2246 kbps
Аудио: MPEG 1.0 Layer3, 48.0 kHz, 192 kbps. 2.0
Аудио 2: MPEG 1.0 Layer3, 48.0 kHz, 192 kbps. 2.0
Код: Выделить всё
General
           Format : AVI
      Format/Info : Audio Video Interleave
      File size : 1 015 MiB
      Duration : 53mn 36s
      Overall bit rate : 2 647 Kbps
      Writing application : VirtualDubMod 1.5.10.2 (build 2540/release)
      Writing library : VirtualDubMod build 2540/release
   Video #0
      ID : 0
      Format : AVC
      Format/Info : Advanced Video Codec
      Format profile : Baseline@L3.0
      Format settings, CABAC : No
      Format settings, ReFrames : 1 frame
      Format settings, GOP : M=1, N=12
      Codec ID : H264
      Duration : 53mn 36s
      Bit rate : 2 246 Kbps
      Width : 704 pixels
      Height : 400 pixels
      Display aspect ratio : 16:9
      Frame rate mode : Variable
      Frame rate : 29.970 fps
      Color space : YUV
      Chroma subsampling : 4:2:0
      Bit depth : 8 bits
      Scan type : Progressive
      Bits/(Pixel*Frame) : 0.266
      Stream size : 861 MiB (85%)
   Audio #1
      ID : 1
      Format : MPEG Audio
      Format version : Version 1
      Format profile : Layer 3
      Mode : Joint stereo
      Codec ID : 55
      Codec ID/Hint : MP3
      Duration : 53mn 36s
      Bit rate mode : Constant
      Bit rate : 192 Kbps
      Channel(s) : 2 channels
      Sampling rate : 48.0 KHz
      Compression mode : Lossy
      Stream size : 73.6 MiB (7%)
      Alignment : Aligned on interleaves
      Interleave, duration : 33 ms (1.00 video frame)
      Interleave, preload duration : 504 ms
   Audio #2
      ID : 2
      Format : MPEG Audio
      Format version : Version 1
      Format profile : Layer 3
      Mode : Joint stereo
      Mode extension : MS Stereo
      Codec ID : 55
      Codec ID/Hint : MP3
      Duration : 53mn 36s
      Bit rate mode : Constant
      Bit rate : 192 Kbps
      Channel(s) : 2 channels
      Sampling rate : 48.0 KHz
      Compression mode : Lossy
      Stream size : 73.6 MiB (7%)
      Alignment : Split accross interleaves
      Interleave, duration : 33 ms (1.00 video frame)
      Interleave, preload duration : 500 ms
 
Не забывайте говорить Спасибо. Не уходите с раздачи!   
Торрент: Зарегистрирован [05 апр 2016, 21:03] Скачать торрент
Скачать торрент
[ Размер 20.44 КБ / Просмотров 136 ]
Статус:
Проверен
 
.torrent скачан: 1 раз
Хэш: 32dad08705a52af8bf7ff748c7c013bbfafd3663
Размер: 1015.16 МБ (1 064 470 528 байт)
Стать Автором раздачи
 
 
Раздал: 6.67 ГБ
Скачал: 302.5 МБ
Ратио: 22.576
Сообщения: 374198
Зарегистрирован: 17 апр 2014, 11:05


  • Похожие торренты
    Ответы
    Просмотры
    Последнее сообщение

Вернуться в Разное / некондиция (документалистика и передачи)

Ресурс не предоставляет электронные версии произведений, а занимается лишь коллекционированием и каталогизацией ссылок, присылаемых и публикуемых на форуме нашими читателями. Если вы являетесь правообладателем какого-либо представленного материала и не желаете чтобы ссылка на него находилась в нашем каталоге, свяжитесь с нами и мы незамедлительно удалим её. Файлы для обмена на трекере предоставлены пользователями сайта, и администрация не несёт ответственности за их содержание. Просьба не заливать файлы, защищенные авторскими правами, а также файлы нелегального содержания!
cron