Искатели - "Утраченные мозаики. Страсти по Васнецову" [2016, документальный, DVB]

 
 Статистика раздачи 
Размер: 996.92 МБ   |  Зарегистрирован: 05 апр 2016, 20:31   |   .torrent скачан: 0 раз
Сидеров: 1  [ 0 байт/сек ]     Личеров: 0  [ 0 байт/сек ]  
  

Искатели - "Утраченные мозаики. Страсти по Васнецову" [2016, документальный, DVB]

Сообщение bagouser » 05 апр 2016, 20:31

Искатели - "Утраченные мозаики. Страсти по Васнецову".

Год выпуска: 2016
Страна: Россия
Жанр: Документальный
Продолжительность: 00:44:02
Перевод: Не требуется
Цикл познавательно-приключенческих программ, посвященный общественно значимым событиям истории России и зарубежья, а также частным историям известных людей, которые оставили потомкам много вопросов и тайн. Жанр цикла – историческое расследование, "телевизионные приключения для взрослых". Чтобы разгадать очередную тайну, "Искатели" исследуют как летописные источники, так и находки, обнаруженные непосредственно на месте исторических событий.
В выпуске: В начале XX века собор Александра Невского в Варшаве был одним из самых известных православных храмов в Европе. Здание впечатляло своими размерами, но особенно интересными были интерьеры, украшенные мозаиками, изготовленными по эскизам Виктора Васнецова. Одна из них - для алтаря - в общей сложности занимала площадь тысячу квадратных метров. Специалисты до сих пор называют ее лучшим примером мозаичного искусства рубежа XIX - XX веков. Однако в 1918 году, когда Польша стала независимым государством, польский Сейм большинством голосов принял решение снести храм, после чего мозаики Васнецова исчезли. Все, что представляло художественную ценность, было предварительно демонтировано, но куда потом отправились мозаики неизвестно. Есть ли надежда увидеть их спустя сто лет?

Качество видео: DVB
Формат видео: MPEG-PS

Видео: MPEG2 Video, 720x576 (4:3), 25 fps, 2900 kbps
Аудио: MPEG Audiо, 2 сh, 48 kHz, 192 kbps

Трансляция спутникового канала:
General
Complete name : D:\Искатели. Утраченные мозаики. Страсти по Васнецову. (2016)_DVB by SLuMeP.mpg
Format : MPEG-PS
File size : 997 MiB
Duration : 44mn 2s
Overall bit rate mode : Variable
Overall bit rate : 3 164 Kbps

Video
ID : 224 (0xE0)
Format : MPEG Video
Format version : Version 2
Format profile : Main@Main
Format settings, BVOP : Yes
Format settings, Matrix : Custom
Format settings, GOP : Variable
Format settings, picture struc : Frame
Duration : 44mn 2s
Bit rate mode : Variable
Bit rate : 2 909 Kbps
Maximum bit rate : 15.0 Mbps
Width : 720 pixels
Height : 576 pixels
Display aspect ratio : 4:3
Frame rate : 25.000 fps
Standard : PAL
Color space : YUV
Chroma subsampling : 4:2:0
Bit depth : 8 bits
Scan type : Interlaced
Scan order : Top Field First
Compression mode : Lossy
Bits/(Pixel*Frame) : 0.281
Time code of first frame : 00:00:00:00
Time code source : Group of pictures header
GOP, Open/Closed : Open
GOP, Open/Closed of first fram : Closed
Stream size : 917 MiB (92%)

Audio
ID : 192 (0xC0)
Format : MPEG Audio
Format version : Version 1
Format profile : Layer 2
Duration : 44mn 2s
Bit rate mode : Constant
Bit rate : 192 Kbps
Channel(s) : 2 channels
Sampling rate : 48.0 KHz
Compression mode : Lossy
Delay relative to video : 7ms
Stream size : 60.5 MiB (6%)
 
Не забывайте говорить Спасибо. Не уходите с раздачи!   
Торрент: Зарегистрирован [05 апр 2016, 20:31] Для скачивания .torrent
необходима регистрация
Или скачать с помощью
MediaGet
Статус:
Проверен
 
.torrent скачан: 0 раз
Хэш: 51c60c36e5c2fbac0d986c0eaf3e42a6d09e737a
Размер: 996.92 МБ (1 045 344 256 байт)
Стать Автором раздачи
 
Аватара пользователя
 
Раздал: 3.77 ТБ
Скачал: 406.28 ГБ
Ратио: 9.496
Сообщения: 468457
Зарегистрирован: 20 янв 2011, 21:15


  • Похожие торренты
    Ответы
    Просмотры
    Последнее сообщение

Вернуться в Битва экстрасенсов / Теория невероятности / Искатели / Галилео

Кто сейчас на конференции

Сейчас эту тему просматривают: нет зарегистрированных пользователей и гости: 1

Ресурс не предоставляет электронные версии произведений, а занимается лишь коллекционированием и каталогизацией ссылок, присылаемых и публикуемых на форуме нашими читателями. Если вы являетесь правообладателем какого-либо представленного материала и не желаете чтобы ссылка на него находилась в нашем каталоге, свяжитесь с нами и мы незамедлительно удалим её. Файлы для обмена на трекере предоставлены пользователями сайта, и администрация не несёт ответственности за их содержание. Просьба не заливать файлы, защищенные авторскими правами, а также файлы нелегального содержания!