Зима в огне / Палаюча зима / Winter On Fire (2015) WEB-DLRip [EN, UA, RU] [09.10.2015, Документальный, WEBRip 720p]

 
 Статистика раздачи 
Размер: 1.8 ГБ   |  Зарегистрирован: 05 апр 2016, 20:08   |   .torrent скачан: 2 раз
Сидеров: 64  [ 0 байт/сек ]     Личеров: 21  [ 0 байт/сек ]  
  

Зима в огне / Палаюча зима / Winter On Fire (2015) WEB-DLRip [EN, UA, RU] [09.10.2015, Документальный, WEBRip 720p]

Сообщение Thistoll » 05 апр 2016, 20:08

Зима в огне / Палаюча зiма / Winter On Fire (2015) WEB-DLRip [EN, UA, RU]

Дата/Год выпуска: 09.10.2015
Страна: Украина
Жанр: Документальный
Продолжительность: 01:39:54
Перевод: Субтитры в украино- и англоязычных фрагментах
Доп. инфо о переводе: Автор субтитров BigZ000
Русские субтитры: есть

Формат субтитров: hardsub (неотключаемые)
Оригинальная аудиодорожка: русский
Телеканал: Netflix
Описание: В фильме показано восстание в Украине на киевском Майдане Независимости зимой 2013-2014 годов, вызванное насильственным разгоном мирной демонстрации отрядом милиции специального назначения «Беркут», и приведшее к свержению режима президента Виктора Януковича.

В фильм вошли интервью с протестующими, записи с места событий и «крупномасштабный» взгляд на конфликт.

качество: WEBRip 720p
формат: MKV
Видео: Advanced Video Codec (AVC), 1280x720, 16:9, 2436 Kbps, 29.970 fps
Аудио: Advanced Audio Codec (AAC), 147 Kbps, 48.0 KHz, 2 channels
Сэмпл 1: http://sendfile.su/1196831
Сэмпл 2: http://sendfile.su/1196832
Код: Выделить всё
General
Формат                                   : MPEG-4
Профиль формата                          : Base Media / Version 2
Идентификатор кодека                     : mp42
Размер файла                             : 1.81 GiB
Продолжительность                        : 1h 39mn
Режим общего битрейта                    : Variable
Общий поток                              : 2 587 Kbps
Дата кодирования                         : UTC 2015-10-17 15:02:49
Дата пометки                             : UTC 2015-10-17 15:02:49

Video
Идентификатор                            : 1
Формат                                   : AVC
Формат/Информация                        : Advanced Video Codec
Профиль формата                          : High@L3.1
Параметр CABAC формата                   : Yes
Параметр ReFrames формата                : 5 frames
Идентификатор кодека                     : avc1
Идентификатор кодека/Информация          : Advanced Video Coding
Продолжительность                        : 1h 39mn
Битрейт                                  : 2 436 Kbps
Ширина                                   : 1 280 pixels
Высота                                   : 720 pixels
Соотношение сторон                       : 16:9
Режим частоты кадров                     : Constant
Частота кадров                           : 29.970 fps
Цветовое пространство                    : YUV
Субдискретизация насыщенности            : 4:2:0
Битовая глубина                          : 8 bits
Тип развёртки                            : Progressive
Бит/(Пиксели*Кадры)                      : 0.088
Размер потока                            : 1.70 GiB (94%)
Библиотека кодирования                   : x264 core 148 r11 73ae2d1
Настройки программы                      : cabac=1 / ref=5 / deblock=1:0:0 / analyse=0x3:0x113 / me=umh / subme=8 / psy=1 / psy_rd=1.00:0.00 / mixed_ref=1 / me_range=16 / chroma_me=1 / trellis=1 / 8x8dct=1 / cqm=0 / deadzone=21,11 / fast_pskip=1 / chroma_qp_offset=-2 / threads=22 / lookahead_threads=3 / sliced_threads=0 / nr=0 / decimate=1 / interlaced=0 / bluray_compat=0 / stitchable=1 / constrained_intra=0 / bframes=3 / b_pyramid=2 / b_adapt=2 / b_bias=0 / direct=3 / weightb=1 / open_gop=0 / weightp=2 / keyint=infinite / keyint_min=29 / scenecut=40 / intra_refresh=0 / rc_lookahead=50 / rc=crf / mbtree=1 / crf=20.0 / qcomp=0.60 / qpmin=5 / qpmax=69 / qpstep=4 / vbv_maxrate=2750 / vbv_bufsize=7500 / crf_max=0.0 / nal_hrd=none / filler=0 / ip_ratio=1.40 / aq=1:1.00
Дата кодирования                         : UTC 2015-10-17 15:02:49
Дата пометки                             : UTC 2015-10-17 15:02:49
Цветовой диапазон                        : Limited
Основные цвета                           : BT.709
Характеристики трансфера                 : BT.709
Коэффициенты матрицы                     : BT.709

Audio
Идентификатор                            : 2
Формат                                   : AAC
Формат/Информация                        : Advanced Audio Codec
Профиль формата                          : LC
Идентификатор кодека                     : 40
Продолжительность                        : 1h 39mn
Вид битрейта                             : Variable
Битрейт                                  : 147 Kbps
Каналы                                   : 2 channels
Расположение каналов                     : Front: L R
Частота                                  : 48.0 KHz
Метод сжатия                             : Lossy
Размер потока                            : 105 MiB (6%)
Дата кодирования                         : UTC 2015-10-17 15:02:49
Дата пометки                             : UTC 2015-10-17 15:02:49
 
Не забывайте говорить Спасибо. Не уходите с раздачи!   
Торрент: Зарегистрирован [05 апр 2016, 20:08] Для скачивания .torrent
необходима регистрация
Или скачать с помощью
MediaGet
Статус:
Проверен
 
.torrent скачан: 2 раз
Хэш: 011a3fb75b083735d52a30f8f436eded9159e7ab
Размер: 1.8 ГБ (1 937 033 948 байт)
Стать Автором раздачи
 
 
Раздал: 6.67 ГБ
Скачал: 302.5 МБ
Ратио: 22.576
Сообщения: 374198
Зарегистрирован: 17 апр 2014, 11:05


Вернуться в История (HD Video)

Ресурс не предоставляет электронные версии произведений, а занимается лишь коллекционированием и каталогизацией ссылок, присылаемых и публикуемых на форуме нашими читателями. Если вы являетесь правообладателем какого-либо представленного материала и не желаете чтобы ссылка на него находилась в нашем каталоге, свяжитесь с нами и мы незамедлительно удалим её. Файлы для обмена на трекере предоставлены пользователями сайта, и администрация не несёт ответственности за их содержание. Просьба не заливать файлы, защищенные авторскими правами, а также файлы нелегального содержания!
cron