Зеркало для героя с Оксаной Пушкиной. Светлана Сорина (мать Игоря Сорина) [11.03.2016, документальный, ток-шоу, биография, SATRip]

 
 Статистика раздачи 
Размер: 713.43 МБ   |  Зарегистрирован: 05 апр 2016, 19:58   |   .torrent скачан: 1 раз
Сидеров: 2  [ 0 байт/сек ]     Личеров: 0  [ 0 байт/сек ]  
  

Зеркало для героя с Оксаной Пушкиной. Светлана Сорина (мать Игоря Сорина) [11.03.2016, документальный, ток-шоу, биография, SATRip]

Сообщение bagouser » 05 апр 2016, 19:58

Зеркало для героя с Оксаной Пушкиной. Светлана Сорина (мать Игоря Сорина)

Дата/Год выпуска: 11.03.2016
Страна: Россия
Жанр: документальный, ток-шоу, биография
Продолжительность: 00:51:29
Перевод: Не требуется
Русские субтитры: нет

Оригинальная аудиодорожка: русский
Телеканал: НТВ
Описание: Оксана Пушкина возвращается на НТВ с новым ежедневным авторским проектом «Зеркало для героя». В своей студии Оксана будет ждать известных людей: актеров, режиссеров, певцов, композиторов, спортсменов, политиков — тех, кто когда-то уже был героем ее программы. Оксана так или иначе следила за их жизнями, со многими она дружит уже многие годы — уникальный архив ее передач фактически запечатлел их судьбы. В «Зеркале» отразятся самые драматические повороты жизни героя. Вместе со зрителями и Оксаной он увидит отрывки своих прошлых интервью. И главное — что в финале программы герой скажет себе сегодняшнему, после того как, с помощью ведущей, вспомнил и пережил заново самые яркие и трагические моменты своей судьбы?

Гостья Оксаны Пушкиной — мать Игоря Сорина – расскажет о том, как найти в себе силы жить дальше после смерти ребенка. Как быть счастливыми, пережив горе? Как взять себя в руки после сильного потрясения?

качество: SATRip
формат: AVI
Видео: XviD, 720x464, 16:10, 1800 Кбит/с, 25 fps
Аудио: AC3, 128 Кбит/с, 48 кГц, 2 ch
Код: Выделить всё
Формат : AVI
Формат/Информация : Audio Video Interleave
Размер файла : 713 Мбайт
Продолжительность : 51 м.
Общий поток : 1937 Кбит/сек
Программа кодирования : VirtualDubMod 1.5.10.3 | www.virtualdub-fr.org || (build 2550/release)
Библиотека кодирования : VirtualDubMod build 2550/release

Видео
Идентификатор : 0
Формат : MPEG-4 Visual
Профиль формата : Advanced Simple@L5
Параметр BVOP формата : 2
Параметр QPel формата : Нет
Параметр GMC формата : Без точки перехода
Параметр матрицы формата : Default (H.263)
Идентификатор кодека : XVID
Идентификатор кодека/Подсказка : XviD
Продолжительность : 51 м.
Битрейт : 1799 Кбит/сек
Ширина : 720 пикселей
Высота : 464 пикселя
Соотношение сторон : 16:10
Частота кадров : 25,000 кадров/сек
Цветовое пространство : YUV
Субдискретизация насыщенности : 4:2:0
Битовая глубина : 8 бит
Тип развёртки : Прогрессивная
Метод сжатия : С потерями
Бит/(Пиксели*Кадры) : 0.215
Размер потока : 663 Мбайт (93%)
Библиотека кодирования : XviD 1.2.1 (UTC 2008-12-04)

Аудио
Идентификатор : 1
Формат : AC-3
Формат/Информация : Audio Coding 3
Расширение режима : CM (complete main)
Параметр Endianness формата : Big
Идентификатор кодека : 2000
Продолжительность : 51 м.
Вид битрейта : Постоянный
Битрейт : 128 Кбит/сек
Каналы : 2 канала
Расположение каналов : Front: L R
Частота : 48,0 КГц
Частота кадров : 31,250 кадров/сек (1536 spf)
Метод сжатия : С потерями
Размер потока : 47,1 Мбайт (7%)
Выравнивание : Разделение по промежуткам
Продолжительность промежутка : 40 мс. (1,00 видеокадр)
Время предзагрузки промежутка : 500 мс.


 
Не забывайте говорить Спасибо. Не уходите с раздачи!   
Торрент: Зарегистрирован [05 апр 2016, 19:58] Для скачивания .torrent
необходима регистрация
Или скачать с помощью
MediaGet
Статус:
Проверен
 
.torrent скачан: 1 раз
Хэш: 1e2a61cb998f49c5457a79b1459053501300c9f5
Размер: 713.43 МБ (748 085 248 байт)
Стать Автором раздачи
 
Аватара пользователя
 
Раздал: 3.77 ТБ
Скачал: 406.3 ГБ
Ратио: 9.496
Сообщения: 468463
Зарегистрирован: 20 янв 2011, 21:15


Вернуться в Социальные ток-шоу

Ресурс не предоставляет электронные версии произведений, а занимается лишь коллекционированием и каталогизацией ссылок, присылаемых и публикуемых на форуме нашими читателями. Если вы являетесь правообладателем какого-либо представленного материала и не желаете чтобы ссылка на него находилась в нашем каталоге, свяжитесь с нами и мы незамедлительно удалим её. Файлы для обмена на трекере предоставлены пользователями сайта, и администрация не несёт ответственности за их содержание. Просьба не заливать файлы, защищенные авторскими правами, а также файлы нелегального содержания!
cron