Зима в огне / Winter on Fire: Ukraine's Fight For Freedom [ HDTVRip 1080p EN, UA, RU]

 
 Статистика раздачи 
Размер: 9.71 ГБ   |  Зарегистрирован: 05 апр 2016, 19:57   |   .torrent скачан: 2 раз
Сидеров: 9  [ 0 байт/сек ]     Личеров: 3  [ 0 байт/сек ]  
  

Зима в огне / Winter on Fire: Ukraine's Fight For Freedom [ HDTVRip 1080p EN, UA, RU]

Сообщение bagouser » 05 апр 2016, 19:57

Зима в огне: борьба за свободу / Winter on Fire: Ukraine's Fight For Freedom / Netflix 2015

Год выпуска: 2015
Страна: Укаина, США
Студия: Netflix
Жанр: политика, история
Продолжительность: 01.33.44
Перевод: Не требуется
Описание: Достаточно приуменьшенная, в плане жестокости, версия Евгения Афинеевского на события Евромайдана

Доп. информация: 2015 Кинофестиваль в Торонто приз зрительских симпатий за лучший документальный фильм «Зима в огне» Победа
2016 Оскар лучший документальный полнометражный фильм «Зима в огне» Номинация

Тип релиза: HDTVRip 1080p
Контейнер: MKV

Видео: 1920:1080p, mpeg4, AVC, 14.8мбит/c, 25 fps
Аудио: 2chanel stereo, 129 Кбит/сек, 48,0 КГц
Код: Выделить всё
Формат                                   : Matroska
Версия формата                           : Version 4 / Version 2
Размер файла                             : 9,71 Гбайт
Продолжительность                        : 1 ч. 33 м.
Общий поток                              : 14,8 Мбит/сек
Дата кодирования                         : UTC 2016-02-24 05:28:58
Программа кодирования                    : mkvmerge v8.9.0 ('Father Daughter') 64bit
Библиотека кодирования                   : libebml v1.3.3 + libmatroska v1.4.4

Видео
Идентификатор                            : 1
Формат                                   : AVC
Формат/Информация                        : Advanced Video Codec
Профиль формата                          : Main@L4.2
Параметр CABAC формата                   : Да
Параметр ReFrames формата                : 4 кадра
Параметр GOP формата                     : M=1, N=25
Режим смешивания                         : Container profile=Baseline@3.0
Идентификатор кодека                     : V_MPEG4/ISO/AVC
Продолжительность                        : 1 ч. 33 м.
Битрейт                                  : 14,7 Мбит/сек
Ширина                                   : 1920 пикселей
Высота                                   : 1080 пикселей
Соотношение сторон                       : 16:9
Режим частоты кадров                     : Постоянный
Частота кадров                           : 25,000 кадров/сек
Стандарт вещания                         : Component
Цветовое пространство                    : YUV
Субдискретизация насыщенности            : 4:2:0
Битовая глубина                          : 8 бит
Тип развёртки                            : Прогрессивная
Бит/(Пиксели*Кадры)                      : 0.283
Размер потока                            : 9,62 Гбайт (99%)
Default                                  : Да
Forced                                   : Нет
Цветовой диапазон                        : Limited

Аудио
Идентификатор                            : 2
Формат                                   : AAC
Формат/Информация                        : Advanced Audio Codec
Профиль формата                          : LC
Идентификатор кодека                     : A_AAC
Продолжительность                        : 1 ч. 33 м.
Битрейт                                  : 129 Кбит/сек
Каналы                                   : 2 канала
Расположение каналов                     : Front: L R
Частота                                  : 48,0 КГц
Частота кадров                           : 46,875 кадров/сек (1024 spf)
Метод сжатия                             : С потерями
Задержка видео                           : 4 мс.
Размер потока                            : 86,6 Мбайт (1%)
Default                                  : Да
Forced                                   : Нет


Семплhttps://yadi.sk/i/VQuC_-4mpoB6u
 
Не забывайте говорить Спасибо. Не уходите с раздачи!   
Торрент: Зарегистрирован [05 апр 2016, 19:57] Для скачивания .torrent
необходима регистрация
Или скачать с помощью
MediaGet
Статус:
Проверен
 
.torrent скачан: 2 раз
Хэш: 6298cff1615973cef6eae8e68ed56fcd5da5c0cd
Размер: 9.71 ГБ (10 423 677 763 байт)
Стать Автором раздачи
 
Аватара пользователя
 
Раздал: 3.77 ТБ
Скачал: 406.28 ГБ
Ратио: 9.496
Сообщения: 468457
Зарегистрирован: 20 янв 2011, 21:15


  • Похожие торренты
    Ответы
    Просмотры
    Последнее сообщение

Вернуться в История (HD Video)

Кто сейчас на конференции

Сейчас эту тему просматривают: нет зарегистрированных пользователей и гости: 1

Ресурс не предоставляет электронные версии произведений, а занимается лишь коллекционированием и каталогизацией ссылок, присылаемых и публикуемых на форуме нашими читателями. Если вы являетесь правообладателем какого-либо представленного материала и не желаете чтобы ссылка на него находилась в нашем каталоге, свяжитесь с нами и мы незамедлительно удалим её. Файлы для обмена на трекере предоставлены пользователями сайта, и администрация не несёт ответственности за их содержание. Просьба не заливать файлы, защищенные авторскими правами, а также файлы нелегального содержания!