Moderat - III (Box Set, 3CD, Limited Edition) (2016) [FLAC|Lossless|tracks+.cue] <Techno, IDM, Electro, Experimental>

 
 Статистика раздачи 
Размер: 867.72 МБ   |  Зарегистрирован: 05 апр 2016, 11:40   |   .torrent скачан: 4 раз
Сидеров: 1  [ 0 байт/сек ]     Личеров: 0  [ 0 байт/сек ]  
  

Moderat - III (Box Set, 3CD, Limited Edition) (2016) [FLAC|Lossless|tracks+.cue] <Techno, IDM, Electro, Experimental>

Сообщение i926 » 05 апр 2016, 11:40

Moderat
III (Box Set)

Год:
2016 • Жанр: Techno, IDM, Electro, Experimental • Издание: Monkeytown Records – MTR065BOX
Кодек: FLAC • Битрейт: Lossless • Тип рипа: tracks+.cue • Продолжительность: 02:31:40
Треклист:
Год выпуска: 2016
Продолжительность: 00:42:30
Треклист:

01. Eating Hooks (04:32)
02. Running (03:51)
03. Finder (05:20)
04. Ghostmother (05:57)
05. Reminder (03:54)
06. The Fool (04:12)
07. Intruder (04:38)
08. Animal Trails (04:38)
09. Ethereal (05:28)
Код: Выделить всё
Exact Audio Copy V1.1 from 23. June 2015

EAC extraction logfile from 3. April 2016, 2:23

Moderat / III

Used drive  : TSSTcorpCDDVDW SH-224DB   Adapter: 1  ID: 0

Read mode               : Secure
Utilize accurate stream : Yes
Defeat audio cache      : Yes
Make use of C2 pointers : No

Read offset correction                      : 6
Overread into Lead-In and Lead-Out          : No
Fill up missing offset samples with silence : Yes
Delete leading and trailing silent blocks   : No
Null samples used in CRC calculations       : Yes
Used interface                              : Native Win32 interface for Win NT & 2000
Gap handling                                : Appended to previous track

Used output format              : User Defined Encoder
Selected bitrate                : 1024 kBit/s
Quality                         : High
Add ID3 tag                     : No
Command line compressor         : F:\Program Files (x86)\FLAC Frontend\tools\flac.exe
Additional command line options : -8 -e -V -T "ARTIST=%artist%" -T "TITLE=%title%" -T "ALBUM=%albumtitle%" -T "DATE=%year%" -T "TRACKNUMBER=%tracknr%" -T "GENRE=%genre%" -T "PERFORMER=%albuminterpret%" -T "COMPOSER=%composer%" %haslyrics%--tag-from-file=LYRICS="%lyricsfile%"%haslyrics% -T "ALBUMARTIST=%albumartist%" -T "DISCNUMBER=%cdnumber%" -T "TOTALDISCS=%totalcds%" -T "TOTALTRACKS=%numtracks%" -T "COMMENT=%comment%" %source% -o %dest%

TOC of the extracted CD

     Track |   Start  |  Length  | Start sector | End sector
    ---------------------------------------------------------
        1  |  0:00.00 |  4:31.72 |         0    |    20396
        2  |  4:31.72 |  3:51.01 |     20397    |    37722
        3  |  8:22.73 |  5:19.41 |     37723    |    61688
        4  | 13:42.39 |  5:57.19 |     61689    |    88482
        5  | 19:39.58 |  3:54.06 |     88483    |   106038
        6  | 23:33.64 |  4:12.05 |    106039    |   124943
        7  | 27:45.69 |  4:38.00 |    124944    |   145793
        8  | 32:23.69 |  4:38.01 |    145794    |   166644
        9  | 37:01.70 |  5:28.02 |    166645    |   191246

Track  1

     Filename Q:\01 - Eating Hooks.wav

     Pre-gap length  0:00:02.00

     Peak level 99.7 %
     Extraction speed 1.7 X
     Track quality 100.0 %
     Test CRC E9C2B291
     Copy CRC E9C2B291
     Track not present in AccurateRip database
     Copy OK

Track  2

     Filename Q:\02 - Running.wav

     Peak level 98.7 %
     Extraction speed 1.9 X
     Track quality 100.0 %
     Test CRC 7E414A9A
     Copy CRC 7E414A9A
     Track not present in AccurateRip database
     Copy OK

Track  3

     Filename Q:\03 - Finder.wav

     Peak level 98.7 %
     Extraction speed 2.1 X
     Track quality 100.0 %
     Test CRC 7ACBDB9F
     Copy CRC 7ACBDB9F
     Track not present in AccurateRip database
     Copy OK

Track  4

     Filename Q:\04 - Ghostmother.wav

     Peak level 98.9 %
     Extraction speed 2.1 X
     Track quality 99.9 %
     Test CRC 25058FF3
     Copy CRC 25058FF3
     Track not present in AccurateRip database
     Copy OK

Track  5

     Filename Q:\05 - Reminder.wav

     Peak level 98.8 %
     Extraction speed 2.5 X
     Track quality 100.0 %
     Test CRC 068C9F3C
     Copy CRC 068C9F3C
     Track not present in AccurateRip database
     Copy OK

Track  6

     Filename Q:\06 - The Fool.wav

     Peak level 98.6 %
     Extraction speed 2.6 X
     Track quality 100.0 %
     Test CRC 161657E0
     Copy CRC 161657E0
     Track not present in AccurateRip database
     Copy OK

Track  7

     Filename Q:\07 - Intruder.wav

     Peak level 98.6 %
     Extraction speed 2.8 X
     Track quality 100.0 %
     Test CRC EE5A6DEF
     Copy CRC EE5A6DEF
     Track not present in AccurateRip database
     Copy OK

Track  8

     Filename Q:\08 - Animal Trails.wav

     Peak level 98.6 %
     Extraction speed 3.0 X
     Track quality 100.0 %
     Test CRC C4939E13
     Copy CRC C4939E13
     Track not present in AccurateRip database
     Copy OK

Track  9

     Filename Q:\09 - Ethereal.wav

     Peak level 98.6 %
     Extraction speed 2.6 X
     Track quality 99.9 %
     Test CRC EDBA686B
     Copy CRC EDBA686B
     Track not present in AccurateRip database
     Copy OK

None of the tracks are present in the AccurateRip database

No errors occurred

End of status report

---- CUETools DB Plugin V2.1.6

[CTDB TOCID: EvMrojaktN_4uj9oI3bls3JNxOA-] found
Submit result: EvMrojaktN_4uj9oI3bls3JNxOA- has been confirmed
Track | CTDB Status
  1   | (31/31) Accurately ripped
  2   | (31/31) Accurately ripped
  3   | (31/31) Accurately ripped
  4   | (31/31) Accurately ripped
  5   | (31/31) Accurately ripped
  6   | (31/31) Accurately ripped
  7   | (31/31) Accurately ripped
  8   | (31/31) Accurately ripped
  9   | (31/31) Accurately ripped

==== Log checksum AA3F924486B0731371CD360683410A5A3A8757ECF0360CA9F356562EB23842FD ====

Код: Выделить всё
REM GENRE Electronic
REM DATE 2016
REM DISCID 6B09F509
REM COMMENT "ExactAudioCopy v1.1"
PERFORMER "Moderat"
TITLE "III"
FILE "01 - Eating Hooks.wav" WAVE
  TRACK 01 AUDIO
    TITLE "Eating Hooks"
    PERFORMER "Moderat"
    ISRC DEOE81610326
    INDEX 01 00:00:00
FILE "02 - Running.wav" WAVE
  TRACK 02 AUDIO
    TITLE "Running"
    PERFORMER "Moderat"
    ISRC DEOE81610324
    INDEX 01 00:00:00
FILE "03 - Finder.wav" WAVE
  TRACK 03 AUDIO
    TITLE "Finder"
    PERFORMER "Moderat"
    ISRC DEOE81610325
    INDEX 01 00:00:00
FILE "04 - Ghostmother.wav" WAVE
  TRACK 04 AUDIO
    TITLE "Ghostmother"
    PERFORMER "Moderat"
    ISRC DEOE81610325
    INDEX 01 00:00:00
FILE "05 - Reminder.wav" WAVE
  TRACK 05 AUDIO
    TITLE "Reminder"
    PERFORMER "Moderat"
    ISRC DEOE81610319
    INDEX 01 00:00:00
FILE "06 - The Fool.wav" WAVE
  TRACK 06 AUDIO
    TITLE "The Fool"
    PERFORMER "Moderat"
    ISRC DEOE81610328
    INDEX 01 00:00:00
FILE "07 - Intruder.wav" WAVE
  TRACK 07 AUDIO
    TITLE "Intruder"
    PERFORMER "Moderat"
    ISRC DEOE81610329
    INDEX 01 00:00:00
FILE "08 - Animal Trails.wav" WAVE
  TRACK 08 AUDIO
    TITLE "Animal Trails"
    PERFORMER "Moderat"
    ISRC DEOE81610330
    INDEX 01 00:00:00
FILE "09 - Ethereal.wav" WAVE
  TRACK 09 AUDIO
    TITLE "Ethereal"
    PERFORMER "Moderat"
    ISRC DEOE81610330
    INDEX 01 00:00:00

Код: Выделить всё
-----------------------

DON'T MODIFY THIS FILE

-----------------------

PERFORMER: auCDtect Task Manager, ver. 1.5.1RC6 build 1.5.1.7
Copyright (c) 2008-2010 y-soft. All rights reserved
[url=http://y-soft.org]http://y-soft.org[/url]

ANALYZER: auCDtect: CD records authenticity detector, version 0.8.2
Copyright (c) 2004 Oleg Berngardt. All rights reserved.
Copyright (c) 2004 Alexander Djourik. All rights reserved.

FILE: 09. Ethereal.flac
  Size: 32807976 Hash: 4B1B622EA917595102BA9238AF70DB0D Accuracy: -m0
  Conclusion: CDDA 100%
  Signature: C03AE5450CDA5AB16D3E76B047E0BBEBF73904F4
FILE: 08. Animal Trails.flac
  Size: 28618401 Hash: 9ECBA29A308CFA894E2F744ADCC2AE31 Accuracy: -m0
  Conclusion: CDDA 100%
  Signature: 4DABB3D56E209F22B9CAF4610BA8D65587EE4F8F
FILE: 07. Intruder.flac
  Size: 31047548 Hash: C921D13AE08E28968C4CA15338D2FEC6 Accuracy: -m0
  Conclusion: CDDA 100%
  Signature: EEFC07D411A3763A09084B9D7A08646398EDAE5F
FILE: 06. The Fool.flac
  Size: 24160960 Hash: DABED555D0A295A2607E9C64CD42F22C Accuracy: -m0
  Conclusion: CDDA 100%
  Signature: B45681354D35E06FE860F9E4930A38EFB5F67B03
FILE: 05. Reminder.flac
  Size: 25480883 Hash: 02554DABA4D6304AF3659D5C1D62F068 Accuracy: -m0
  Conclusion: CDDA 100%
  Signature: A12FA0D3D10390108E8FB1461D6CF6F80A52841B
FILE: 04. Ghostmother.flac
  Size: 37136576 Hash: 86AEB366FFB3192E16078E751BD61868 Accuracy: -m0
  Conclusion: CDDA 100%
  Signature: 0137169884E03161A135F17BC5859F0E7EEB6713
FILE: 03. Finder.flac
  Size: 34317554 Hash: E5250BB825391CDA79CA51500EADBD20 Accuracy: -m0
  Conclusion: CDDA 100%
  Signature: A022D5618F8691B7194EDBAB580FB760C4354D95
FILE: 02. Running.flac
  Size: 26210423 Hash: 92D98C9A193C05C937BD4307A0692C08 Accuracy: -m0
  Conclusion: CDDA 100%
  Signature: BA5C34F0B41AE146FD77877C20C211FE8197BB0B
FILE: 01. Eating Hooks.flac
  Size: 25012691 Hash: DE7A285992A83C96A48EAF2F85D613FB Accuracy: -m0
  Conclusion: CDDA 100%
  Signature: F6010C144CA3C3FEE0F0C86465DA821510980D9A

 
#77Год выпуска: 2016
Продолжительность: 00:42:30
Треклист:

01. Eating Hooks (Instrumental Version) (04:32)
02. Running (Instrumental Version) (03:51)
03. Finder (05:20)
04. Ghostmother (Instrumental Version) (05:57)
05. Reminder (Instrumental Version) (03:54)
06. The Fool (Instrumental Version) (04:12)
07. Intruder (Instrumental Version) (04:38)
08. Animal Trails (04:38)
09. Ethereal (Instrumental Version) (05:28)
Код: Выделить всё
Exact Audio Copy V1.1 from 23. June 2015

EAC extraction logfile from 3. April 2016, 0:53

Moderat / III CD 02 - Instrumentals

Used drive  : TSSTcorpCDDVDW SH-224DB   Adapter: 1  ID: 0

Read mode               : Secure
Utilize accurate stream : Yes
Defeat audio cache      : Yes
Make use of C2 pointers : No

Read offset correction                      : 6
Overread into Lead-In and Lead-Out          : No
Fill up missing offset samples with silence : Yes
Delete leading and trailing silent blocks   : No
Null samples used in CRC calculations       : Yes
Used interface                              : Native Win32 interface for Win NT & 2000
Gap handling                                : Appended to previous track

Used output format              : User Defined Encoder
Selected bitrate                : 1024 kBit/s
Quality                         : High
Add ID3 tag                     : No
Command line compressor         : F:\Program Files (x86)\FLAC Frontend\tools\flac.exe
Additional command line options : -8 -e -V -T "ARTIST=%artist%" -T "TITLE=%title%" -T "ALBUM=%albumtitle%" -T "DATE=%year%" -T "TRACKNUMBER=%tracknr%" -T "GENRE=%genre%" -T "PERFORMER=%albuminterpret%" -T "COMPOSER=%composer%" %haslyrics%--tag-from-file=LYRICS="%lyricsfile%"%haslyrics% -T "ALBUMARTIST=%albumartist%" -T "DISCNUMBER=%cdnumber%" -T "TOTALDISCS=%totalcds%" -T "TOTALTRACKS=%numtracks%" -T "COMMENT=%comment%" %source% -o %dest%

TOC of the extracted CD

     Track |   Start  |  Length  | Start sector | End sector
    ---------------------------------------------------------
        1  |  0:00.00 |  4:31.72 |         0    |    20396
        2  |  4:31.72 |  3:51.01 |     20397    |    37722
        3  |  8:22.73 |  5:19.41 |     37723    |    61688
        4  | 13:42.39 |  5:57.19 |     61689    |    88482
        5  | 19:39.58 |  3:54.06 |     88483    |   106038
        6  | 23:33.64 |  4:12.05 |    106039    |   124943
        7  | 27:45.69 |  4:38.00 |    124944    |   145793
        8  | 32:23.69 |  4:38.01 |    145794    |   166644
        9  | 37:01.70 |  5:28.03 |    166645    |   191247

Track  1

     Filename Q:\01 - Eating Hooks - Instrumental Version.wav

     Pre-gap length  0:00:02.00

     Peak level 99.7 %
     Extraction speed 1.8 X
     Track quality 100.0 %
     Test CRC 78D19A30
     Copy CRC 78D19A30
     Track not present in AccurateRip database
     Copy OK

Track  2

     Filename Q:\02 - Running - Instrumental Version.wav

     Peak level 98.6 %
     Extraction speed 1.9 X
     Track quality 100.0 %
     Test CRC 109005C9
     Copy CRC 109005C9
     Track not present in AccurateRip database
     Copy OK

Track  3

     Filename Q:\03 - Finder - Instrumental Version.wav

     Peak level 98.7 %
     Extraction speed 2.2 X
     Track quality 100.0 %
     Test CRC 1ADC5CE3
     Copy CRC 1ADC5CE3
     Track not present in AccurateRip database
     Copy OK

Track  4

     Filename Q:\04 - Ghostmother - Instrumental Version.wav

     Peak level 98.9 %
     Extraction speed 2.1 X
     Track quality 99.9 %
     Test CRC 60671341
     Copy CRC 60671341
     Track not present in AccurateRip database
     Copy OK

Track  5

     Filename Q:\05 - Reminder - Instrumental Version.wav

     Peak level 98.8 %
     Extraction speed 2.5 X
     Track quality 100.0 %
     Test CRC AD939C31
     Copy CRC AD939C31
     Track not present in AccurateRip database
     Copy OK

Track  6

     Filename Q:\06 - The Fool - Instrumental Version.wav

     Peak level 98.6 %
     Extraction speed 2.7 X
     Track quality 100.0 %
     Test CRC CCF6212F
     Copy CRC CCF6212F
     Track not present in AccurateRip database
     Copy OK

Track  7

     Filename Q:\07 - Intruder - Instrumental Version.wav

     Peak level 98.6 %
     Extraction speed 2.8 X
     Track quality 100.0 %
     Test CRC FDF4DD6D
     Copy CRC FDF4DD6D
     Track not present in AccurateRip database
     Copy OK

Track  8

     Filename Q:\08 - Animal Trails - Instrumental Version.wav

     Peak level 98.6 %
     Extraction speed 3.0 X
     Track quality 100.0 %
     Test CRC 39AC1D6F
     Copy CRC 39AC1D6F
     Track not present in AccurateRip database
     Copy OK

Track  9

     Filename Q:\09 - Ethereal - Instrumental Version.wav

     Peak level 98.6 %
     Extraction speed 2.7 X
     Track quality 99.9 %
     Test CRC 3CECD849
     Copy CRC 3CECD849
     Track not present in AccurateRip database
     Copy OK

None of the tracks are present in the AccurateRip database

No errors occurred

End of status report

---- CUETools DB Plugin V2.1.6

[CTDB TOCID: Rl5iWaN1HEhj1eZFFC4m8GxKQW0-] found
Submit result: Rl5iWaN1HEhj1eZFFC4m8GxKQW0- has been confirmed
Track | CTDB Status
  1   | (2/2) Accurately ripped
  2   | (2/2) Accurately ripped
  3   | (2/2) Accurately ripped
  4   | (2/2) Accurately ripped
  5   | (2/2) Accurately ripped
  6   | (2/2) Accurately ripped
  7   | (2/2) Accurately ripped
  8   | (2/2) Accurately ripped
  9   | (2/2) Accurately ripped

==== Log checksum 00D90E8936A4FC29567EE819F720F2564A05361A015BC4B74B0798D039975E1E ====

Код: Выделить всё
REM GENRE Electronic
REM DATE 2016
REM DISCID 6B09F509
REM COMMENT "ExactAudioCopy v1.1"
PERFORMER "Moderat"
TITLE "III CD 02 - Instrumentals"
FILE "01 - Eating Hooks - Instrumental Version.wav" WAVE
  TRACK 01 AUDIO
    TITLE "Eating Hooks - Instrumental Version"
    PERFORMER "Moderat"
    ISRC DEOE81610334
    INDEX 01 00:00:00
FILE "02 - Running - Instrumental Version.wav" WAVE
  TRACK 02 AUDIO
    TITLE "Running - Instrumental Version"
    PERFORMER "Moderat"
    ISRC DEOE81610333
    INDEX 01 00:00:00
FILE "03 - Finder - Instrumental Version.wav" WAVE
  TRACK 03 AUDIO
    TITLE "Finder - Instrumental Version"
    PERFORMER "Moderat"
    ISRC DEOE81610325
    INDEX 01 00:00:00
FILE "04 - Ghostmother - Instrumental Version.wav" WAVE
  TRACK 04 AUDIO
    TITLE "Ghostmother - Instrumental Version"
    PERFORMER "Moderat"
    ISRC DEOE81610332
    INDEX 01 00:00:00
FILE "05 - Reminder - Instrumental Version.wav" WAVE
  TRACK 05 AUDIO
    TITLE "Reminder - Instrumental Version"
    PERFORMER "Moderat"
    ISRC DEOE81610335
    INDEX 01 00:00:00
FILE "06 - The Fool - Instrumental Version.wav" WAVE
  TRACK 06 AUDIO
    TITLE "The Fool - Instrumental Version"
    PERFORMER "Moderat"
    ISRC DEOE81610336
    INDEX 01 00:00:00
FILE "07 - Intruder - Instrumental Version.wav" WAVE
  TRACK 07 AUDIO
    TITLE "Intruder - Instrumental Version"
    PERFORMER "Moderat"
    ISRC DEOE81610337
    INDEX 01 00:00:00
FILE "08 - Animal Trails - Instrumental Version.wav" WAVE
  TRACK 08 AUDIO
    TITLE "Animal Trails - Instrumental Version"
    PERFORMER "Moderat"
    ISRC DEOE81610330
    INDEX 01 00:00:00
FILE "09 - Ethereal - Instrumental Version.wav" WAVE
  TRACK 09 AUDIO
    TITLE "Ethereal - Instrumental Version"
    PERFORMER "Moderat"
    ISRC DEOE81610338
    INDEX 01 00:00:00

Код: Выделить всё
-----------------------

DON'T MODIFY THIS FILE

-----------------------

PERFORMER: auCDtect Task Manager, ver. 1.5.1RC6 build 1.5.1.7
Copyright (c) 2008-2010 y-soft. All rights reserved
[url=http://y-soft.org]http://y-soft.org[/url]

ANALYZER: auCDtect: CD records authenticity detector, version 0.8.2
Copyright (c) 2004 Oleg Berngardt. All rights reserved.
Copyright (c) 2004 Alexander Djourik. All rights reserved.

FILE: 09. Ethereal (Instrumental Version).flac
  Size: 31721570 Hash: 79F8DE0D4B465DC0FD204A6EC7092287 Accuracy: -m0
  Conclusion: CDDA 100%
  Signature: A4B6E2A749BC4E01A807FBB61DCD2B71DA5DB542
FILE: 08. Animal Trails.flac
  Size: 28647500 Hash: 32F271A67C04ECD1B2B09358EBD1DD3C Accuracy: -m0
  Conclusion: CDDA 100%
  Signature: 7CFDD90C7ED2449CE8ECA322CF765776AD8AA514
FILE: 07. Intruder (Instrumental Version).flac
  Size: 29787983 Hash: 20D64B13C68D15D54B4818789E4F9F58 Accuracy: -m0
  Conclusion: CDDA 100%
  Signature: 9C7ECEE80CA8675BDD95EE882CB7B993D93DA294
FILE: 06. The Fool (Instrumental Version).flac
  Size: 22954583 Hash: 19E96FFB832D47696B4B0B3AD4877557 Accuracy: -m0
  Conclusion: CDDA 100%
  Signature: 5AA0043E6BAE339621D360BB1DC34B49C4C46103
FILE: 05. Reminder (Instrumental Version).flac
  Size: 23892879 Hash: AFD02B4E578AC16302A696577EA9E755 Accuracy: -m0
  Conclusion: CDDA 100%
  Signature: 38E19017475EDA6AF3AD2EB2165405FD41D378A6
FILE: 04. Ghostmother (Instrumental Version).flac
  Size: 34954590 Hash: 567B23A6847C0BFA43746E7E270932C5 Accuracy: -m0
  Conclusion: CDDA 100%
  Signature: E9C695E8DC04EBC90D6350149BEB530EA61F13DF
FILE: 03. Finder.flac
  Size: 34297352 Hash: D53A42A6219251C741ECDECCB212353F Accuracy: -m0
  Conclusion: CDDA 100%
  Signature: 8C7C2F0817117BC3BF76A747F2A3B39397627BA6
FILE: 02. Running (Instrumental Version).flac
  Size: 25385083 Hash: 8045E4D45FEB7BDF7ABC341836C74BD3 Accuracy: -m0
  Conclusion: CDDA 99%
  Signature: B3E4BB450C217D2435640581516D076DC010FA17
FILE: 01. Eating Hooks (Instrumental Version).flac
  Size: 22731283 Hash: 600F2C91FE17B9316C9D0294C62C17F0 Accuracy: -m0
  Conclusion: CDDA 100%
  Signature: D02541FAA059BA035B4FA32C655E3A12395154F2

 
#77Год выпуска: 2016
Продолжительность: 01:06:40
Треклист:

01. Eating Hooks (NGHT DRPS Remix) (05:16)
02. Reminder (Hodges More Amor Remix) (05:44)
03. Eating Hooks (Siriusmo Remix) (04:42)
04. Fondle (04:51)
05. Ethereal (Benjamin Damage Remix) (04:07)
06. Intruder (Skeemask Remix) (05:13)
07. Ethereal (More Ethereal by RK) (04:56)
08. Invaluable Waste From The Outlying Districts Pt.01 (07:23)
09. Invaluable Waste From The Outlying Districts Pt.02 (07:42)
10. Invaluable Waste From The Outlying Districts Pt.03 (16:46)
Код: Выделить всё
Exact Audio Copy V1.1 from 23. June 2015

EAC extraction logfile from 3. April 2016, 1:44

Moderat / III CD 03 - Bonus Tracks & Remixes

Used drive  : TSSTcorpCDDVDW SH-224DB   Adapter: 1  ID: 0

Read mode               : Secure
Utilize accurate stream : Yes
Defeat audio cache      : Yes
Make use of C2 pointers : No

Read offset correction                      : 6
Overread into Lead-In and Lead-Out          : No
Fill up missing offset samples with silence : Yes
Delete leading and trailing silent blocks   : No
Null samples used in CRC calculations       : Yes
Used interface                              : Native Win32 interface for Win NT & 2000
Gap handling                                : Appended to previous track

Used output format              : User Defined Encoder
Selected bitrate                : 1024 kBit/s
Quality                         : High
Add ID3 tag                     : No
Command line compressor         : F:\Program Files (x86)\FLAC Frontend\tools\flac.exe
Additional command line options : -8 -e -V -T "ARTIST=%artist%" -T "TITLE=%title%" -T "ALBUM=%albumtitle%" -T "DATE=%year%" -T "TRACKNUMBER=%tracknr%" -T "GENRE=%genre%" -T "PERFORMER=%albuminterpret%" -T "COMPOSER=%composer%" %haslyrics%--tag-from-file=LYRICS="%lyricsfile%"%haslyrics% -T "ALBUMARTIST=%albumartist%" -T "DISCNUMBER=%cdnumber%" -T "TOTALDISCS=%totalcds%" -T "TOTALTRACKS=%numtracks%" -T "COMMENT=%comment%" %source% -o %dest%

TOC of the extracted CD

     Track |   Start  |  Length  | Start sector | End sector
    ---------------------------------------------------------
        1  |  0:00.00 |  5:15.69 |         0    |    23693
        2  |  5:15.69 |  5:43.65 |     23694    |    49483
        3  | 10:59.59 |  4:41.48 |     49484    |    70606
        4  | 15:41.32 |  4:51.33 |     70607    |    92464
        5  | 20:32.65 |  4:06.66 |     92465    |   110980
        6  | 24:39.56 |  5:13.13 |    110981    |   134468
        7  | 29:52.69 |  4:56.35 |    134469    |   156703
        8  | 34:49.29 |  7:23.25 |    156704    |   189953
        9  | 42:12.54 |  7:42.03 |    189954    |   224606
       10  | 49:54.57 | 16:45.56 |    224607    |   300037

Track  1

     Filename Q:\01 - Eating Hooks (NGHT DRPS Remix).wav

     Pre-gap length  0:00:02.00

     Peak level 98.9 %
     Extraction speed 1.9 X
     Track quality 100.0 %
     Test CRC 271D39AD
     Copy CRC 271D39AD
     Track not present in AccurateRip database
     Copy OK

Track  2

     Filename Q:\02 - Reminder (Hodges More Amor Remix).wav

     Pre-gap length  0:00:00.66

     Peak level 98.8 %
     Extraction speed 2.1 X
     Track quality 100.0 %
     Test CRC 5A02ED9E
     Copy CRC 5A02ED9E
     Track not present in AccurateRip database
     Copy OK

Track  3

     Filename Q:\03 - Eating Hooks (Siriusmo Remix).wav

     Pre-gap length  0:00:01.16

     Peak level 98.8 %
     Extraction speed 2.3 X
     Track quality 100.0 %
     Test CRC 6AABCBF3
     Copy CRC 6AABCBF3
     Track not present in AccurateRip database
     Copy OK

Track  4

     Filename Q:\04 - Fondle.wav

     Pre-gap length  0:00:02.72

     Peak level 98.8 %
     Extraction speed 2.5 X
     Track quality 100.0 %
     Test CRC FD18F93D
     Copy CRC FD18F93D
     Track not present in AccurateRip database
     Copy OK

Track  5

     Filename Q:\05 - Ethereal (Benjamin Damage Remix).wav

     Pre-gap length  0:00:02.16

     Peak level 98.8 %
     Extraction speed 2.6 X
     Track quality 100.0 %
     Test CRC 3F052E87
     Copy CRC 3F052E87
     Track not present in AccurateRip database
     Copy OK

Track  6

     Filename Q:\06 - Intruder (Skeemask Remix).wav

     Pre-gap length  0:00:01.60

     Peak level 98.8 %
     Extraction speed 2.8 X
     Track quality 100.0 %
     Test CRC 475B6BD1
     Copy CRC 475B6BD1
     Track not present in AccurateRip database
     Copy OK

Track  7

     Filename Q:\07 - Ethereal (More Ethereal).wav

     Pre-gap length  0:00:01.50

     Peak level 98.8 %
     Extraction speed 2.5 X
     Track quality 99.9 %
     Test CRC A0FBD04D
     Copy CRC A0FBD04D
     Track not present in AccurateRip database
     Copy OK

Track  8

     Filename Q:\08 - Invaluable Waste From The Outlying Districts Pt. 01.wav

     Pre-gap length  0:00:02.24

     Peak level 98.8 %
     Extraction speed 3.3 X
     Track quality 100.0 %
     Test CRC 8A699286
     Copy CRC 8A699286
     Track not present in AccurateRip database
     Copy OK

Track  9

     Filename Q:\09 - Invaluable Waste From The Outlying Districts Pt. 02.wav

     Peak level 98.9 %
     Extraction speed 3.5 X
     Track quality 100.0 %
     Test CRC D8E332F6
     Copy CRC D8E332F6
     Track not present in AccurateRip database
     Copy OK

Track 10

     Filename Q:\10 - Invaluable Waste From The Outlying Districts Pt. 03.wav

     Peak level 98.8 %
     Extraction speed 4.0 X
     Track quality 100.0 %
     Test CRC 04C5563A
     Copy CRC 04C5563A
     Track not present in AccurateRip database
     Copy OK

None of the tracks are present in the AccurateRip database

No errors occurred

End of status report

---- CUETools DB Plugin V2.1.6

[CTDB TOCID: MLgdLnPgr1Vj70Jw0mhiZqW_na0-] found
Submit result: MLgdLnPgr1Vj70Jw0mhiZqW_na0- has been confirmed
Track | CTDB Status
  1   | (4/4) Accurately ripped
  2   | (4/4) Accurately ripped
  3   | (4/4) Accurately ripped
  4   | (4/4) Accurately ripped
  5   | (4/4) Accurately ripped
  6   | (4/4) Accurately ripped
  7   | (4/4) Accurately ripped
  8   | (4/4) Accurately ripped
  9   | (4/4) Accurately ripped
 10   | (4/4) Accurately ripped

==== Log checksum F1619117EAAA30306940EEECFFC44C59D29353368239D32A999CE8B2DC48986C ====

Код: Выделить всё
REM GENRE Instrumental
REM DATE 2016
REM DISCID 8B0FA00A
REM COMMENT "ExactAudioCopy v1.1"
PERFORMER "Moderat"
TITLE "III CD 03 - Bonus Tracks & Remixes"
FILE "01 - Eating Hooks (NGHT DRPS Remix).wav" WAVE
  TRACK 01 AUDIO
    TITLE "Eating Hooks (NGHT DRPS Remix)"
    PERFORMER "Moderat"
    ISRC DEOE81610339
    INDEX 01 00:00:00
  TRACK 02 AUDIO
    TITLE "Reminder (Hodges More Amor Remix)"
    PERFORMER "Moderat"
    ISRC DEOE81610340
    INDEX 00 05:15:19
FILE "02 - Reminder (Hodges More Amor Remix).wav" WAVE
    INDEX 01 00:00:00
  TRACK 03 AUDIO
    TITLE "Eating Hooks (Siriusmo Remix)"
    PERFORMER "Moderat"
    ISRC DEOE81610341
    INDEX 00 05:42:53
FILE "03 - Eating Hooks (Siriusmo Remix).wav" WAVE
    INDEX 01 00:00:00
  TRACK 04 AUDIO
    TITLE "Fondle"
    PERFORMER "Moderat"
    ISRC DEOE81610320
    INDEX 00 04:38:69
FILE "04 - Fondle.wav" WAVE
    INDEX 01 00:00:00
  TRACK 05 AUDIO
    TITLE "Ethereal (Benjamin Damage Remix)"
    PERFORMER "Moderat"
    ISRC DEOE81610342
    INDEX 00 04:49:21
FILE "05 - Ethereal (Benjamin Damage Remix).wav" WAVE
    INDEX 01 00:00:00
  TRACK 06 AUDIO
    TITLE "Intruder (Skeemask Remix)"
    PERFORMER "Moderat"
    ISRC DEOE81610343
    INDEX 00 04:05:21
FILE "06 - Intruder (Skeemask Remix).wav" WAVE
    INDEX 01 00:00:00
  TRACK 07 AUDIO
    TITLE "Ethereal (More Ethereal)"
    PERFORMER "Moderat"
    ISRC DEOE81610344
    INDEX 00 05:11:50
FILE "07 - Ethereal (More Ethereal).wav" WAVE
    INDEX 01 00:00:00
  TRACK 08 AUDIO
    TITLE "Invaluable Waste From The Outlying Districts Pt. 01"
    PERFORMER "Moderat"
    ISRC DEOE81610345
    INDEX 00 04:54:17
FILE "08 - Invaluable Waste From The Outlying Districts Pt. 01.wav" WAVE
    INDEX 01 00:00:00
FILE "09 - Invaluable Waste From The Outlying Districts Pt. 02.wav" WAVE
  TRACK 09 AUDIO
    TITLE "Invaluable Waste From The Outlying Districts Pt. 02"
    PERFORMER "Moderat"
    ISRC DEOE81610346
    INDEX 01 00:00:00
FILE "10 - Invaluable Waste From The Outlying Districts Pt. 03.wav" WAVE
  TRACK 10 AUDIO
    TITLE "Invaluable Waste From The Outlying Districts Pt. 03"
    PERFORMER "Moderat"
    ISRC DEOE81610347
    INDEX 01 00:00:00

Код: Выделить всё
-----------------------

DON'T MODIFY THIS FILE

-----------------------

PERFORMER: auCDtect Task Manager, ver. 1.5.1RC6 build 1.5.1.7
Copyright (c) 2008-2010 y-soft. All rights reserved
[url=http://y-soft.org]http://y-soft.org[/url]

ANALYZER: auCDtect: CD records authenticity detector, version 0.8.2
Copyright (c) 2004 Oleg Berngardt. All rights reserved.
Copyright (c) 2004 Alexander Djourik. All rights reserved.

FILE: 10. Invaluable Waste From The Outlying Districts Pt.03.flac
  Size: 97976514 Hash: D78B1284DD52084C9546F3D9674C6D80 Accuracy: -m0
  Conclusion: CDDA 100%
  Signature: DEDD9C431AE1D45C8FC965893F99DAF9481D7428
FILE: 09. Invaluable Waste From The Outlying Districts Pt.02.flac
  Size: 39351560 Hash: 5DA7F373A7D5AEA5C5CD6FB1F24590F6 Accuracy: -m0
  Conclusion: CDDA 100%
  Signature: 776B96FEF4465CCC0D97AA458F85FA220BFD04BA
FILE: 08. Invaluable Waste From The Outlying Districts Pt.01.flac
  Size: 40626283 Hash: F39A90EB7FE5C0A67A5AFFF1679DB155 Accuracy: -m0
  Conclusion: CDDA 100%
  Signature: 25730BCD1246046C140C33CFCD51011D2022E61C
FILE: 07. Ethereal (More Ethereal by RK).flac
  Size: 28041435 Hash: F5CF64249F6CF2E8BA55F7FAF5E2A45F Accuracy: -m0
  Conclusion: CDDA 100%
  Signature: 8033E575470BBC2353311DC30694572703F88A3F
FILE: 06. Intruder (Skeemask Remix).flac
  Size: 30317049 Hash: 7AF88B2296E373B1DB3D6B9034B0BCB1 Accuracy: -m0
  Conclusion: CDDA 100%
  Signature: 981FEABB3724FADBFF1E71894FDF54F9EB9D72C4
FILE: 05. Ethereal (Benjamin Damage Remix).flac
  Size: 23673901 Hash: 34998DBE804BF16B016EC70FC923003F Accuracy: -m0
  Conclusion: CDDA 100%
  Signature: 561F5C89BE18CBA2281530C2C7060AD21464D831
FILE: 04. Fondle.flac
  Size: 32701010 Hash: 40018C004474413D74F5B856A337B04C Accuracy: -m0
  Conclusion: CDDA 100%
  Signature: D4FACBE3428DE3CECE9D29BC15D29EA79C55EAC9
FILE: 03. Eating Hooks (Siriusmo Remix).flac
  Size: 29923186 Hash: DC9B3509D502DA2EA164D9A1C929DE92 Accuracy: -m0
  Conclusion: CDDA 100%
  Signature: 2AF072BD274DBF01B6D8F4327801AFE8342DDC9D
FILE: 02. Reminder (Hodges More Amor Remix).flac
  Size: 36229885 Hash: 232EB522154382980FAF5D7A92F8BF49 Accuracy: -m0
  Conclusion: CDDA 99%
  Signature: C811A6B68E06E07E7A954AB6847AFA611489F187
FILE: 01. Eating Hooks (NGHT DRPS Remix).flac
  Size: 29359209 Hash: E47FC7F287323C6209194F61AB1049FF Accuracy: -m0
  Conclusion: CDDA 100%
  Signature: EDC3729D0194D3C5554389AFBB85C4BF71F315F5

 
Время раздачи: 12/7

 
Не забывайте говорить Спасибо. Не уходите с раздачи!   
Торрент: Зарегистрирован [05 апр 2016, 11:40] Скачать торрент
Скачать торрент
[ Размер 21.03 КБ / Просмотров 40 ]
Статус:
Проверен
 
.torrent скачан: 4 раз
Хэш: 9bc1954655ddd8d565946635488e5e54945b81bf
Размер: 867.72 МБ (909 872 124 байт)
Стать Автором раздачи
 
Аватара пользователя
Главный редактор
Главный редактор
 
Раздал: 15.43 ТБ
Скачал: 13.78 ТБ
Ратио: 1.120
Сообщения: 65451
Зарегистрирован: 01 мар 2011, 23:07


  • Похожие торренты
    Ответы
    Просмотры
    Последнее сообщение

Вернуться в House, Techno, Electro, Minimal (транзит Lossless)

Ресурс не предоставляет электронные версии произведений, а занимается лишь коллекционированием и каталогизацией ссылок, присылаемых и публикуемых на форуме нашими читателями. Если вы являетесь правообладателем какого-либо представленного материала и не желаете чтобы ссылка на него находилась в нашем каталоге, свяжитесь с нами и мы незамедлительно удалим её. Файлы для обмена на трекере предоставлены пользователями сайта, и администрация не несёт ответственности за их содержание. Просьба не заливать файлы, защищенные авторскими правами, а также файлы нелегального содержания!
cron