Угонщик (2015) WEB-DLRip [H.264] [MP4|1280x538]

 
 Статистика раздачи 
Размер: 296.7 МБ   |  Зарегистрирован: 02 апр 2016, 13:15   |   .torrent скачан: 0 раз
Сидеров: 1  [ 0 байт/сек ]     Личеров: 1  [ 0 байт/сек ]  
  

Угонщик (2015) WEB-DLRip [H.264] [MP4|1280x538]

Сообщение i926 » 02 апр 2016, 13:15

Угонщик (2015) WEB-DLRip

Производство: Атлантик / Россия
Жанр: Короткометражный, Драма, Криминал, Ужасы

Режиссер: Максим Кулагин
Продюсер: Екатерина Филиппова
Актеры: Александр Петров, Дмитрий Чеботарёв, Антон Филипенко, Ольга Хохлова, Антон Лапенко, Евгений Сергеев

Описание:
Двое друзей занимаются хищениями автомобилей с целью вымогательства денег у их хозяев. Очередной угон проходит гладко. Владелец авто соглашается заплатить, но выдвигает неожиданное условие…


Возраст: 18+ (зрителям, достигшим 18 лет. запрещено для детей)
Дата российской премьеры: 12.06.2015

Продолжительность: 00:25:13
Качество видео: WEB-DLRip

Видео: AVC/H.264, 1280x538, ~1485 Кбит/сек
Аудио: AAC, 2 канала, 152 Кбит/сек
Код:
Код: Выделить всё
Общее

Формат                                   : MPEG-4
Профиль формата                          : Base Media
Идентификатор кодека                     : isom (isom/iso2/avc1/mp41)
Размер файла                             : 297 Мбайт
Продолжительность                        : 25 м.
Режим общего битрейта                    : Переменный
Общий поток                              : 1645 Кбит/сек
Программа кодирования                    : Lavf56.25.101

Видео
Идентификатор                            : 1
Формат                                   : AVC
Формат/Информация                        : Advanced Video Codec
Профиль формата                          :
Параметр CABAC формата                   : Да
Параметр ReFrames формата                : 4 кадра
Идентификатор кодека                     : avc1
Идентификатор кодека/Информация          : Advanced Video Coding
Продолжительность                        : 25 м.
Битрейт                                  : 1485 Кбит/сек
Ширина                                   : 1280 пикселей
Высота                                   : 538 пикселей
Соотношение сторон                       : 2,40:1
Режим частоты кадров                     : Постоянный
Частота кадров                           : 30,000 кадров/сек
Цветовое пространство                    : YUV
Субдискретизация насыщенности            : 4:2:0
Битовая глубина                          : 8 бит
Тип развёртки                            : Прогрессивная
Бит/(Пиксели*Кадры)                      : 0.072
Размер потока                            : 268 Мбайт (90%)
Библиотека кодирования                   : x264 core 142

Аудио
Идентификатор                            : 2
Формат                                   : AAC
Формат/Информация                        : Advanced Audio Codec
Профиль формата                          : LC
Идентификатор кодека                     : 40
Продолжительность                        : 25 м.
Duration_LastFrame                       : -22 мс.
Вид битрейта                             : Переменный
Битрейт                                  : 152 Кбит/сек
Максимальный битрейт                     : 192 Кбит/сек
Каналы                                   : 2 канала
Расположение каналов                     : Front: L R
Частота                                  : 44,1 КГц
Частота кадров                           : 43,066 кадра/сек (1024 spf)
Метод сжатия                             : С потерями
Размер потока                            : 27,4 Мбайт (9%)
Default                                  : Да
Alternate group                          : 1

Скриншоты:



Время раздачи: 24/7 (до появления первых 3-5 скачавших)
 
Не забывайте говорить Спасибо. Не уходите с раздачи!   
Торрент: Зарегистрирован [02 апр 2016, 13:15] Для скачивания .torrent
необходима регистрация
Или скачать с помощью
MediaGet
Статус:
Проверен
 
.torrent скачан: 0 раз
Хэш: 6d4b55e94492ad66508069033e51f53c4d507883
Размер: 296.7 МБ (311 107 542 байт)
Стать Автором раздачи
 
Аватара пользователя
Главный редактор
Главный редактор
 
Раздал: 15.43 ТБ
Скачал: 13.78 ТБ
Ратио: 1.120
Сообщения: 65090
Зарегистрирован: 01 мар 2011, 23:07


  • Похожие торренты
    Ответы
    Просмотры
    Последнее сообщение

Вернуться в Видео для мобильных устройств

Ресурс не предоставляет электронные версии произведений, а занимается лишь коллекционированием и каталогизацией ссылок, присылаемых и публикуемых на форуме нашими читателями. Если вы являетесь правообладателем какого-либо представленного материала и не желаете чтобы ссылка на него находилась в нашем каталоге, свяжитесь с нами и мы незамедлительно удалим её. Файлы для обмена на трекере предоставлены пользователями сайта, и администрация не несёт ответственности за их содержание. Просьба не заливать файлы, защищенные авторскими правами, а также файлы нелегального содержания!
cron