Ультра Мюзик Фестиваль Маями 2016 День 3 / Ultra Music Festival Miami 2016-Day 3 Sunday-720pHD-20-mar-2016 (2016) HDTV

 
 Статистика раздачи 
Размер: 12.25 ГБ   |  Зарегистрирован: 02 апр 2016, 13:06   |   .torrent скачан: 0 раз
Сидеров: 1  [ 0 байт/сек ]     Личеров: 0  [ 0 байт/сек ]  
  

Ультра Мюзик Фестиваль Маями 2016 День 3 / Ultra Music Festival Miami 2016-Day 3 Sunday-720pHD-20-mar-2016 (2016) HDTV

Сообщение i926 » 02 апр 2016, 13:06

Ультра Мюзик Фестиваль Маями 2016 День 3 / Ultra Music Festival Miami 2016-Day 3 Sunday-720pHD-20-mar-2016 (2016) HDTV

Жанр: Музыкальное видео

Режиссер: UMF TV
Актеры: Andrew Rayel, Zedd, Armin van Buuren and more...

Описание:
8 часов фестиваля клубной музыки и Сырой эфир без купюр, включая все интервью.

Продолжительность: 08.06.00
Качество видео: HDTV
Перевод: Отсутствует
Язык: Английский

Видео: AVC/H.264, 1 280x720, ~3 500 Kbps
Аудио: AAC, 2 ch, 96.0 Kbps
Код:
Код: Выделить всё
Complete name               : Ultra Music Festival Miami 2016 - Day 3 Sunday - 720p HD - 20-mar-2016.mp4
Format                      : MPEG-4
Format profile              : Base Media
Codec ID                    : isom (isom/iso2/avc1/mp41)
File size                   : 12.3 GiB
Duration                    : 8h 6mn
Overall bit rate mode       : Constant
Overall bit rate            : 3 610 Kbps
Writing application         : Lavf57.26.100

Video
ID                          : 1
Format                      : AVC
Format/Info                 : Advanced Video Codec
Format profile              : Main@L4
Format settings, CABAC      : Yes
Format settings, ReFrames   : 4 frames
Format settings, GOP        : M=1, N=60
Codec ID                    : avc1
Codec ID/Info               : Advanced Video Coding
Duration                    : 8h 5mn
Bit rate mode               : Constant
Bit rate                    : 3 500 Kbps
Width                       : 1 280 pixels
Height                      : 720 pixels
Display aspect ratio        : 16:9
Frame rate mode             : Variable
Frame rate                  : 29.970 (29970/1000) fps
Minimum frame rate          : 3.322 fps
Maximum frame rate          : 30.303 fps
Original frame rate         : 29.970 (30000/1001) fps
Color space                 : YUV
Chroma subsampling          : 4:2:0
Bit depth                   : 8 bits
Scan type                   : Progressive
Bits/(Pixel*Frame)          : 0.127
Stream size                 : 11.9 GiB (97%)

Audio
ID                          : 2
Format                      : AAC
Format/Info                 : Advanced Audio Codec
Format profile              : LC
Codec ID                    : 40
Duration                    : 8h 6mn
Bit rate mode               : Constant
Bit rate                    : 96.0 Kbps
Channel(s)                  : 2 channels
Channel positions           : Front: L R
Sampling rate               : 48.0 KHz
Frame rate                  : 46.875 fps (1024 spf)
Compression mode            : Lossy
Stream size                 : 340 MiB (3%)
Default                     : Yes
Alternate group             : 1

Скриншоты:



Время раздачи: 14:00 до 19:00 (до появления первых 3-5 скачавших)
Не судите строго, делаю раздачу первый раз
 
Не забывайте говорить Спасибо. Не уходите с раздачи!   
Торрент: Зарегистрирован [02 апр 2016, 13:06] Скачать торрент
Скачать торрент
[ Размер 31.47 КБ / Просмотров 44 ]
Статус:
Проверен
 
.torrent скачан: 0 раз
Хэш: 7c95c5799287802294741d3bec1e6a2573c8efb2
Размер: 12.25 ГБ (13 156 814 888 байт)
Стать Автором раздачи
 
Аватара пользователя
Главный редактор
Главный редактор
 
Раздал: 15.43 ТБ
Скачал: 13.78 ТБ
Ратио: 1.120
Сообщения: 65451
Зарегистрирован: 01 мар 2011, 23:07


  • Похожие торренты
    Ответы
    Просмотры
    Последнее сообщение

Вернуться в Музыкальные клипы (транзит)

Ресурс не предоставляет электронные версии произведений, а занимается лишь коллекционированием и каталогизацией ссылок, присылаемых и публикуемых на форуме нашими читателями. Если вы являетесь правообладателем какого-либо представленного материала и не желаете чтобы ссылка на него находилась в нашем каталоге, свяжитесь с нами и мы незамедлительно удалим её. Файлы для обмена на трекере предоставлены пользователями сайта, и администрация не несёт ответственности за их содержание. Просьба не заливать файлы, защищенные авторскими правами, а также файлы нелегального содержания!
cron