Агрессивная среда (6 серий) [2014-2015, Документальный, HDTV 1080i]

 
 Статистика раздачи 
Размер: 14.04 ГБ   |  Зарегистрирован: 30 мар 2016, 16:52   |   .torrent скачан: 0 раз
Сидеров: 1  [ 0 байт/сек ]     Личеров: 0  [ 0 байт/сек ]  
  

Агрессивная среда (6 серий) [2014-2015, Документальный, HDTV 1080i]

Сообщение Master Chief » 30 мар 2016, 16:52

Агрессивная среда (6 серий)

Год выпуска: 2014-2015
Страна: Россия
Жанр: Документальный
Продолжительность: 6 x 46 минут
Перевод: Не требуется
Описание: Цикл передач "Агрессивная среда" - это научное расследование, где автор вместе со зрителями пытается посмотреть на проблему с разных точек зрения. Нам ежедневно угрожает множество опасных факторов, но человечество учится приспосабливаться и противостоять неблагоприятной среде, а порой и использовать ее в своих целях. От дорожных пробок до открытого огня - Александре Говорченко предстоит погрузиться с головой в каждую тему программы.

История обновления раздачи:
30.03.2016 - добавлены серии 2-6

Доп. информация: IPTV Remux (запись потока без перекодирования)

Список серий и краткое содержание:
01. Агрессивная среда. Работа: Есть такой термин - экономически-активное население Земли. Как и 70 миллионов соотечественников от 15 до 72 лет, каждое утро Александра Говорченко собирается на работу. По сравнению с трудовым графиком на предприятиях рубежа 19-ого - 20-ого века - рабочие там трудились по 20 часов в сутки - нынешняя рабочая неделя вполне человечна - всего 40 часов. Но за жизнь набегает 10 с лишним лет! Работа бывает выматывающей, а бывает опасной, она отбирает время и силы, а порой становится настоящей Агрессивной Средой!
02. Агрессивная среда. На высоте: Можно ли привыкнуть к высоте? Узнать это можно только лишь в компании аэрофоба - человека, который испытывает страх высоты. Ведущие задались целью не только побороть страх, но и насладиться высотой.
03. Агрессивная среда. Промышленная высота: Альпинизм - преодоление себя и покорение горных вершин. Героическое и смертельно-опасное предприятие. Скалолазание - вид спорта безопаснее альпинизма, со своими зрителями, квалификацией и правилами. Но где-то на стыке этих дисциплин родилась совершенно отдельная профессия - промышленный альпинизм. Эти люди покоряют не горы, а высоты современных городов... И это покорение таит в себе множество опасностей: сможет ли автор программы побороть свой страх и спуститься с 70-метрового здания? Кто они - люди, живущие на крыше? Отчего промышленные альпинисты лезут на стену, и стала ли эта промышленная высота для нас покоренной вершиной или все так же остается "агрессивной средой"?!
04. Агрессивная среда. Высокое напряжение: Высокое напряжение - это по определению большое по амплитуде электрическое напряжение. Мы все знаем, что оно смертельно опасно. Но почему? Как может быть опасно то, чего даже не видно? Откуда это напряжение появляется, и можно ли этой неведомой силе хоть что-нибудь противопоставить?
05. Агрессивная среда. Радиация, 1 часть: Радиация. Ее невозможно увидеть, почувствовать, пощупать. Оттого страх перед этим неизвестным излучением всё растёт. Так что же такое радиация? В чем разница между ядерным распадом и термоядерным синтезом? Как измерить радиоактивность Солнца? Что такое мюон, и как он может рассказать землянам о космической радиации? Ради ответов на эти вопросы съемочная группа программы "Агрессивная Среда" отправилась на действующую АЭС, побывала внутри токамака и спустилась на дно специального бассейна-детектора!
06. Агрессивная среда. Радиация, 2 часть. Ядерный полигон: Представьте себе Словению, полностью непригодную для жизни, - такова территория Семипалатинского испытательного полигона. На этих 18,5 тысячах квадратных километров атом мирным не был. За 40 лет - с 1949-ого по 1989-ый - здесь прогремело больше 500 ядерных и термоядерных взрывов. Как живет сейчас эта земля, и будет ли когда-то пригодна для жизни? Съемочная группа программы "Агрессивная Среда" побывала в одном из самых радиоактивных мест на планете.
Тип релиза: HDTV 1080i
Контейнер: TS

Видео: AVC H.264, 1920x1080i (16:9), 25 fps, 7035 kbps , 0.136 bits/pixel
Аудио: MPEG Audio, 2 channels, 192 kbps, 48KHz
Код: Выделить всё
General
ID                                       : 1 (0x1)
Complete name                            : Агрессивная среда. Работа.ts
Format                                   : MPEG-TS
File size                                : 2.44 GiB
Duration                                 : 46mn 1s
Overall bit rate mode                    : Variable
Overall bit rate                         : 7 604 Kbps

Video
ID                                       : 1012 (0x3F4)
Menu ID                                  : 1 (0x1)
Format                                   : AVC
Format/Info                              : Advanced Video Codec
Format profile                           : [email protected]
Format settings, CABAC                   : Yes
Format settings, ReFrames                : 4 frames
Codec ID                                 : 27
Duration                                 : 46mn 1s
Bit rate                                 : 7 035 Kbps
Width                                    : 1 920 pixels
Height                                   : 1 080 pixels
Display aspect ratio                     : 16:9
Frame rate                               : 25.000 fps
Color space                              : YUV
Chroma subsampling                       : 4:2:0
Bit depth                                : 8 bits
Scan type                                : MBAFF
Bits/(Pixel*Frame)                       : 0.136
Stream size                              : 2.26 GiB (93%)

Audio
ID                                       : 1102 (0x44E)
Menu ID                                  : 1 (0x1)
Format                                   : MPEG Audio
Format version                           : Version 1
Format profile                           : Layer 2
Mode                                     : Joint stereo
Mode extension                           : Intensity Stereo + MS Stereo
Codec ID                                 : 3
Duration                                 : 46mn 1s
Bit rate mode                            : Constant
Bit rate                                 : 192 Kbps
Channel(s)                               : 2 channels
Sampling rate                            : 48.0 KHz
Compression mode                         : Lossy
Stream size                              : 63.2 MiB (3%)
Language                                 : English
 
Не забывайте говорить Спасибо. Не уходите с раздачи!   
Торрент: Зарегистрирован [30 мар 2016, 16:52] Для скачивания .torrent
необходима регистрация
Или скачать с помощью
MediaGet
Статус:
Проверен
 
.torrent скачан: 0 раз
Хэш: 6ead35f33f2318089d2081979ca3e16c660465da
Размер: 14.04 ГБ (15 074 793 348 байт)
Стать Автором раздачи
 
Аватара пользователя
Администратор
Администратор
 
Раздал: 43.64 ТБ
Скачал: 67.25 ТБ
Ратио: 0.649
Сообщения: 76573
Зарегистрирован: 07 янв 2011, 16:36


  • Похожие торренты
    Ответы
    Просмотры
    Последнее сообщение

Вернуться в Естествознание, наука и техника (HD Video)

Кто сейчас на конференции

Сейчас эту тему просматривают: нет зарегистрированных пользователей и гости: 1

Ресурс не предоставляет электронные версии произведений, а занимается лишь коллекционированием и каталогизацией ссылок, присылаемых и публикуемых на форуме нашими читателями. Если вы являетесь правообладателем какого-либо представленного материала и не желаете чтобы ссылка на него находилась в нашем каталоге, свяжитесь с нами и мы незамедлительно удалим её. Файлы для обмена на трекере предоставлены пользователями сайта, и администрация не несёт ответственности за их содержание. Просьба не заливать файлы, защищенные авторскими правами, а также файлы нелегального содержания!