Болек и Лелек в Европе / Bolek i Lolek w Europie / Серии: 1-3, 5 из 5 (Владислав Нагребецки / Wladyslaw Nehrebecki, Альфред Ледвиг / Alfred Ledwig) [1983-1986 г., Детский, TVRip] DUB

 
 Статистика раздачи 
Размер: 544.41 МБ   |  Зарегистрирован: 29 мар 2016, 09:06   |   .torrent скачан: 0 раз
Сидеров: 1  [ 0 байт/сек ]     Личеров: 0  [ 0 байт/сек ]  
  

Болек и Лелек в Европе / Bolek i Lolek w Europie / Серии: 1-3, 5 из 5 (Владислав Нагребецки / Wladyslaw Nehrebecki, Альфред Ледвиг / Alfred Ledwig) [1983-1986 г., Детский, TVRip] DUB

Сообщение i926 » 29 мар 2016, 09:06


Болек и Лелек в Европе / Bolek i Lolek w Europie

Страна: Польша
Жанр: Детский
Продолжительность: 10 мин.
Год выпуска: 1983-1986 г.
Перевод: Профессиональный (Дубляж)
Русские субтитры: Нет

Режиссер: Владислав Нагребецки / Wladyslaw Nehrebecki, Альфред Ледвиг / Alfred Ledwig

Студия: "Бельска Бяла" / Bielsku-Bialej

Описание: Хорошо знакомые и горячо любимые всеми веселые приятели Болек и Лелек никогда не сидят без дела. Они самые непоседливые и любознательные выдумщики на свете. Болек и Лелек обожают приключения и постоянно попадают в забавные ситуации, из которых непросто выпутаться. На этот раз они отправляются в приключение по Европе.
Доп. информация: Запись сделана с IPTV. 4 серия с русским дубляжом показана не была, но ее можно посмотреть на польском. Например, в раздаче.

| Релиз:
Качество: TVRip
Формат: AVI
Видео:
720x576 (5:4), 25 fps, XviD ~1750 kbps avg, 0.17 bit/pixel
Аудио:
48 kHz, MPEG Layer 3, 2 ch, ~160.00 kbps avg




1. Призрак замка лорда Макинтоша
2. В царстве Посейдона
3. В Испании
4. Под кратером
5. Оленьи гонки
Формат : AVI
Формат/Информация : Audio Video Interleave
Размер файла : 138 Мбайт
Продолжительность : 10 м.
Общий поток : 1914 Кбит/сек
Библиотека кодирования : VirtualDub build 35512/release

Видео
Идентификатор : 0
Формат : MPEG-4 Visual
Профиль формата : Advanced Simple@L5
Параметр BVOP формата : 4
Параметр QPel формата : Нет
Параметр GMC формата : Без точки перехода
Параметр матрицы формата : Default (MPEG)
Идентификатор кодека : XVID
Идентификатор кодека/Подсказка : XviD
Продолжительность : 10 м.
Битрейт : 1745 Кбит/сек
Ширина : 720 пикселей
Высота : 576 пикселей
Соотношение сторон : 5:4
Частота кадров : 25,000 кадров/сек
Стандарт вещания : PAL
Цветовое пространство : YUV
Субдискретизация насыщенности : 4:2:0
Битовая глубина : 8 бит
Тип развёртки : Прогрессивная
Метод сжатия : С потерями
Бит/(Пиксели*Кадры) : 0.168
Размер потока : 126 Мбайт (91%)
Библиотека кодирования : XviD 66

Аудио
Идентификатор : 1
Формат : MPEG Audio
Версия формата : Version 1
Профиль формата : Layer 3
Режим : Joint stereo
Идентификатор кодека : 55
Идентификатор кодека/Подсказка : MP3
Продолжительность : 10 м.
Вид битрейта : Постоянный
Битрейт : 160 Кбит/сек
Каналы : 2 канала
Частота : 48,0 КГц
Метод сжатия : С потерями
Размер потока : 11,5 Мбайт (8%)
Выравнивание : Разделение по промежуткам
Продолжительность промежутка : 40 мс. (1,00 видеокадр)
Время предзагрузки промежутка : 500 мс.
 
Не забывайте говорить Спасибо. Не уходите с раздачи!   
Торрент: Зарегистрирован [29 мар 2016, 09:06] Скачать торрент
Скачать торрент
[ Размер 22.04 КБ / Просмотров 103 ]
Статус:
Проверен
 
.torrent скачан: 0 раз
Хэш: 627962351bc18d08d823d2ea9520c67986b26f92
Размер: 544.41 МБ (570 856 662 байт)
Стать Автором раздачи
 
Аватара пользователя
Главный редактор
Главный редактор
 
Раздал: 15.43 ТБ
Скачал: 13.78 ТБ
Ратио: 1.120
Сообщения: 65449
Зарегистрирован: 01 мар 2011, 23:07


  • Похожие торренты
    Ответы
    Просмотры
    Последнее сообщение

Вернуться в Сборники мультфильмов

Ресурс не предоставляет электронные версии произведений, а занимается лишь коллекционированием и каталогизацией ссылок, присылаемых и публикуемых на форуме нашими читателями. Если вы являетесь правообладателем какого-либо представленного материала и не желаете чтобы ссылка на него находилась в нашем каталоге, свяжитесь с нами и мы незамедлительно удалим её. Файлы для обмена на трекере предоставлены пользователями сайта, и администрация не несёт ответственности за их содержание. Просьба не заливать файлы, защищенные авторскими правами, а также файлы нелегального содержания!
cron