Теория Заговора. Молоко (Алексей Булейко, Кирилл Ващенко) [26.03.2016, Документальный, HDTVRip-AVC]

 
 Статистика раздачи 
Размер: 573.64 МБ   |  Зарегистрирован: 28 мар 2016, 23:09   |   .torrent скачан: 5 раз
Сидеров: 7  [ 0 байт/сек ]     Личеров: 1  [ 0 байт/сек ]  
  

Теория Заговора. Молоко (Алексей Булейко, Кирилл Ващенко) [26.03.2016, Документальный, HDTVRip-AVC]

Сообщение i926 » 28 мар 2016, 23:09

Теория Заговора. Молоко

#77Год выпуска: 26.03.2016
Страна: Россия
Студия: Первый Канал HD
Жанр: Документальный
Продолжительность: 0:42:32
Автор и руководитель цикла: Андрей Сычев
Режиссеры: Алексей Булейко, Кирилл Ващенко
Ведущий: Михаил Мамаев
Описание: Половина молочных продуктов в наших магазинах — подделка. Проверено Россельхознадзором. С таким громким заявлением выступил его глава 29 февраля 2016 года. Что значит фальсификат? Мы не доверяем нашим молочникам. Но почему-то уверены, вот белорусские производители делают всё на совесть. Только из натурального молока прямо из-под коровы. Почему мы так решили, непонятно... Так ли это на самом деле? Разберёмся.
Автор рипа: lrn
Автор записи: GeneralFilm
Сэмпл: sendfile
Тип релиза: HDTVRip-AVC
Контейнер: MKV
Видео: 1024x576 (16:9), 25,000 fps, H264, ~1500 kbps avg, ~0.102 bit/pixel
Аудио: 48 kHz, AC3 Dolby Digital, 3/2 (L,C,R,l,r) + LFE ch, ~384.00 kbps avg
Код: Выделить всё
General
Unique ID                   : 188048384255297796422655913610000132691 (0x8D78CD2A10505B2F9B6A02B508BEEA53)
Complete name               : E:\uTorrent.Temp\Temp\Teoriya.Zagovora.(2016.03.26).HDTVRip-AVC.x264-lrn.mkv
Format                      : Matroska
Format version              : Version 4 / Version 2
File size                   : 574 MiB
Duration                    : 42mn 32s
Overall bit rate            : 1 885 Kbps
Movie name                  : Teoriya.Zagovora.(2016.03.26).HDTVRip-AVC.x264-lrn
Encoded date                : UTC 2010-02-22 21:41:31
Writing application         : mkvmerge v5.9.0 ('On The Loose') built on Dec  9 2012 15:37:01
Writing library             : libebml v1.3.0 + libmatroska v1.4.0

Video
ID                          : 1
Format                      : AVC
Format/Info                 : Advanced Video Codec
Format profile              : [email protected]
Format settings, CABAC      : Yes
Format settings, ReFrames   : 8 frames
Codec ID                    : V_MPEG4/ISO/AVC
Duration                    : 42mn 32s
Bit rate                    : 1 500 Kbps
Width                       : 1 024 pixels
Height                      : 576 pixels
Display aspect ratio        : 16:9
Frame rate mode             : Constant
Frame rate                  : 25.000 fps
Color space                 : YUV
Chroma subsampling          : 4:2:0
Bit depth                   : 8 bits
Scan type                   : Progressive
Bits/(Pixel*Frame)          : 0.102
Stream size                 : 445 MiB (78%)
Writing library             : x264 core 148 r2638 7599210
Encoding settings           : cabac=1 / ref=8 / deblock=1:-3:-3 / analyse=0x3:0x133 / me=umh / subme=9 / psy=1 / psy_rd=1.00:0.00 / mixed_ref=1 / me_range=32 / chroma_me=1 / trellis=2 / 8x8dct=1 / cqm=0 / deadzone=21,11 / fast_pskip=1 / chroma_qp_offset=-2 / threads=12 / lookahead_threads=2 / sliced_threads=0 / nr=0 / decimate=1 / interlaced=0 / bluray_compat=0 / constrained_intra=0 / bframes=8 / b_pyramid=2 / b_adapt=2 / b_bias=0 / direct=3 / weightb=1 / open_gop=0 / weightp=2 / keyint=250 / keyint_min=25 / scenecut=40 / intra_refresh=0 / rc_lookahead=50 / rc=2pass / mbtree=1 / bitrate=1500 / ratetol=1.0 / qcomp=0.60 / qpmin=0 / qpmax=69 / qpstep=4 / cplxblur=20.0 / qblur=0.5 / vbv_maxrate=62500 / vbv_bufsize=78125 / nal_hrd=none / filler=0 / ip_ratio=1.40 / aq=1:1.00
Default                     : Yes
Forced                      : No
Statistics Tags Issue       : mkvmerge v8.5.2 ('Crosses') 32bit 2016-03-28 17:59:40 / mkvmerge v5.9.0 ('On The Loose') built on Dec  9 2012 15:37:01 2010-02-22 21:41:31
FromStats_BitRate           : 1499521
FromStats_Duration          : 00:42:32.360000000
FromStats_FrameCount        : 63809
FromStats_StreamSize        : 478414960

Audio
ID                          : 2
Format                      : AC-3
Format/Info                 : Audio Coding 3
Mode extension              : CM (complete main)
Format settings, Endianness : Big
Codec ID                    : A_AC3
Duration                    : 42mn 32s
Bit rate mode               : Constant
Bit rate                    : 384 Kbps
Channel(s)                  : 6 channels
Channel positions           : Front: L C R, Side: L R, LFE
Sampling rate               : 48.0 KHz
Frame rate                  : 31.250 fps (1536 spf)
Compression mode            : Lossy
Stream size                 : 117 MiB (20%)
Language                    : Russian
Default                     : Yes
Forced                      : No
Код: Выделить всё
raw [info]: 1024x576p 1:1 @ 25/1 fps (cfr)
x264 [info]: using SAR=1/1
x264 [info]: using cpu capabilities: MMX2 SSE2Fast SSSE3 SSE4.2 AVX
x264 [info]: profile High, level 4.1
x264 [info]: frame I:976   Avg QP:18.00  size: 60858
x264 [info]: frame P:18649 Avg QP:21.22  size: 14440
x264 [info]: frame B:44184 Avg QP:23.80  size:  3389
x264 [info]: consecutive B-frames:  5.7%  7.0%  9.4% 63.0%  6.7%  6.2%  1.2%  0.7%  0.1%
x264 [info]: mb I  I16..4: 13.9% 66.7% 19.4%
x264 [info]: mb P  I16..4:  4.4%  8.9%  1.0%  P16..4: 43.4% 11.8% 10.6%  0.5%  0.2%    skip:19.3%
x264 [info]: mb B  I16..4:  0.3%  0.7%  0.1%  B16..8: 33.8%  4.8%  1.1%  direct: 2.9%  skip:56.4%  L0:39.5% L1:48.5% BI:12.0%
x264 [info]: 8x8 transform intra:63.4% inter:68.3%
x264 [info]: direct mvs  spatial:92.5% temporal:7.5%
x264 [info]: coded y,uvDC,uvAC intra: 55.2% 74.8% 38.3% inter: 11.1% 18.2% 1.2%
x264 [info]: i16 v,h,dc,p: 33% 17%  7% 43%
x264 [info]: i8 v,h,dc,ddl,ddr,vr,hd,vl,hu: 12% 12% 10%  8% 11% 11% 13% 11% 13%
x264 [info]: i4 v,h,dc,ddl,ddr,vr,hd,vl,hu: 15% 13%  5%  8% 12% 12% 13% 10% 13%
x264 [info]: i8c dc,h,v,p: 32% 29% 20% 18%
x264 [info]: Weighted P-Frames: Y:2.9% UV:1.3%
x264 [info]: ref P L0: 57.2% 12.9% 14.9%  4.7%  3.6%  2.7%  2.3%  1.5%  0.2%  0.0%
x264 [info]: ref B L0: 83.7%  9.2%  3.6%  1.5%  1.1%  0.7%  0.4%
x264 [info]: ref B L1: 95.8%  4.2%
x264 [info]: kb/s:1499.52
encoded 63809 frames, 27.30 fps, 1499.52 kb/s

 
Не забывайте говорить Спасибо. Не уходите с раздачи!   
Торрент: Зарегистрирован [28 мар 2016, 23:09] Для скачивания .torrent
необходима регистрация
Или скачать с помощью
MediaGet
Статус:
Проверен
 
.torrent скачан: 5 раз
Хэш: 03969d2215b1cc5b3efe40c1694190fb26c7a73d
Размер: 573.64 МБ (601 501 436 байт)
Стать Автором раздачи
 
Аватара пользователя
Главный редактор
Главный редактор
 
Раздал: 7.95 ТБ
Скачал: 10.47 ТБ
Ратио: 0.760
Сообщения: 64273
Зарегистрирован: 01 мар 2011, 23:07


  • Похожие торренты
    Ответы
    Просмотры
    Последнее сообщение

Вернуться в Тайны века / Спецслужбы / Теории Заговоров

Кто сейчас на конференции

Сейчас эту тему просматривают: нет зарегистрированных пользователей и гости: 1

Ресурс не предоставляет электронные версии произведений, а занимается лишь коллекционированием и каталогизацией ссылок, присылаемых и публикуемых на форуме нашими читателями. Если вы являетесь правообладателем какого-либо представленного материала и не желаете чтобы ссылка на него находилась в нашем каталоге, свяжитесь с нами и мы незамедлительно удалим её. Файлы для обмена на трекере предоставлены пользователями сайта, и администрация не несёт ответственности за их содержание. Просьба не заливать файлы, защищенные авторскими правами, а также файлы нелегального содержания!