Superpitcher - Kilimanjaro (2010) [FLAC|Lossless|tracks + .cue] <Downtempo, Minimal, Tech House>

 
 Статистика раздачи 
Размер: 452.92 МБ   |  Зарегистрирован: 27 мар 2016, 13:01   |   .torrent скачан: 3 раз
Сидеров: 1  [ 0 байт/сек ]     Личеров: 0  [ 0 байт/сек ]  
  

Superpitcher - Kilimanjaro (2010) [FLAC|Lossless|tracks + .cue] <Downtempo, Minimal, Tech House>

Сообщение i926 » 27 мар 2016, 13:01

Superpitcher - Kilimanjaro

Год: 2010
Жанр: Downtempo, Minimal, Tech House
Издание: Kompakt ‎– KOMPAKT CD 80
Продолжительность: 01:11:32

Кодек: FLAC
Битрейт: Lossless
Тип рипа: tracks + .cue

Треклист:
01. Prelude [01:29]
02. Voodoo [07:15]
03. Country Boy [09:50]
04. Rabbits In A Hurry [07:37]
05. Friday Night [07:52]
06. Moon Fever [04:10]
07. Give Me My Heart Back [06:35]
08. Who Stole The Sun [06:02]
09. Black Magic [09:01]
10. Joanna [06:42]
11. Holiday Hearts [05:01]
Код:
Код: Выделить всё
Exact Audio Copy V0.99 prebeta 5 from 4. May 2009

EAC extraction logfile from 8. September 2010, 18:31

Superpitcher / Kilimanjaro

Used drive  : _NEC    DVD_RW ND-3550A   Adapter: 0  ID: 0

Read mode               : Secure
Utilize accurate stream : Yes
Defeat audio cache      : Yes
Make use of C2 pointers : No

Read offset correction                      : 48
Overread into Lead-In and Lead-Out          : No
Fill up missing offset samples with silence : Yes
Delete leading and trailing silent blocks   : No
Null samples used in CRC calculations       : Yes
Used interface                              : Native Win32 interface for Win NT & 2000
Gap handling                                : Appended to previous track

Used output format              : User Defined Encoder
Selected bitrate                : 320 kBit/s
Quality                         : High
Add ID3 tag                     : No
Command line compressor         : C:\Program Files (x86)\Exact Audio Copy\Flac\flac.exe
Additional command line options : -V -8 -T "artist=%a" -T "title=%t" -T "album=%g" -T "date=%y" -T "tracknumber=%n" -T "genre=%m" %s

TOC of the extracted CD

     Track |   Start  |  Length  | Start sector | End sector
    ---------------------------------------------------------
        1  |  0:00.00 |  1:29.61 |         0    |     6735
        2  |  1:29.61 |  7:15.56 |      6736    |    39416
        3  |  8:45.42 |  9:50.43 |     39417    |    83709
        4  | 18:36.10 |  7:37.43 |     83710    |   118027
        5  | 26:13.53 |  7:52.05 |    118028    |   153432
        6  | 34:05.58 |  4:10.17 |    153433    |   172199
        7  | 38:16.00 |  6:35.05 |    172200    |   201829
        8  | 44:51.05 |  6:02.12 |    201830    |   228991
        9  | 50:53.17 |  9:01.46 |    228992    |   269612
       10  | 59:54.63 |  6:42.52 |    269613    |   299814
       11  | 66:37.40 |  5:01.10 |    299815    |   322399

Track  1

     Filename C:\RIPS\Superpitcher - Kilimanjaro - 2010\01 - Prelude.wav

     Pre-gap length  0:00:02.00

     Peak level 92.7 %
     Track quality 100.0 %
     Test CRC 2C4F3888
     Copy CRC 2C4F3888
     Copy OK

Track  2

     Filename C:\RIPS\Superpitcher - Kilimanjaro - 2010\02 - Voodoo.wav

     Pre-gap length  0:00:00.26

     Peak level 92.7 %
     Track quality 100.0 %
     Test CRC 1F8FFEFA
     Copy CRC 1F8FFEFA
     Copy OK

Track  3

     Filename C:\RIPS\Superpitcher - Kilimanjaro - 2010\03 - Country Boy.wav

     Pre-gap length  0:00:00.88

     Peak level 97.3 %
     Track quality 100.0 %
     Test CRC 0261790E
     Copy CRC 0261790E
     Copy OK

Track  4

     Filename C:\RIPS\Superpitcher - Kilimanjaro - 2010\04 - Rabbits In A Hurry.wav

     Pre-gap length  0:00:00.94

     Peak level 97.3 %
     Track quality 99.9 %
     Test CRC 0B6AADE6
     Copy CRC 0B6AADE6
     Copy OK

Track  5

     Filename C:\RIPS\Superpitcher - Kilimanjaro - 2010\05 - Friday Night.wav

     Pre-gap length  0:00:01.46

     Peak level 97.3 %
     Track quality 100.0 %
     Test CRC 7DC92F09
     Copy CRC 7DC92F09
     Copy OK

Track  6

     Filename C:\RIPS\Superpitcher - Kilimanjaro - 2010\06 - Moon Fever.wav

     Pre-gap length  0:00:00.22

     Peak level 89.0 %
     Track quality 100.0 %
     Test CRC 8294A6C2
     Copy CRC 8294A6C2
     Copy OK

Track  7

     Filename C:\RIPS\Superpitcher - Kilimanjaro - 2010\07 - Give Me My Heart Back.wav

     Pre-gap length  0:00:02.02

     Peak level 97.3 %
     Track quality 100.0 %
     Test CRC 835D8FFB
     Copy CRC 835D8FFB
     Copy OK

Track  8

     Filename C:\RIPS\Superpitcher - Kilimanjaro - 2010\08 - Who Stole The Sun.wav

     Pre-gap length  0:00:00.54

     Peak level 97.3 %
     Track quality 100.0 %
     Test CRC 06465744
     Copy CRC 06465744
     Copy OK

Track  9

     Filename C:\RIPS\Superpitcher - Kilimanjaro - 2010\09 - Black Magic.wav

     Pre-gap length  0:00:00.37

     Peak level 97.3 %
     Track quality 99.9 %
     Test CRC 4C45A915
     Copy CRC 4C45A915
     Copy OK

Track 10

     Filename C:\RIPS\Superpitcher - Kilimanjaro - 2010\10 - Joanna.wav

     Peak level 98.3 %
     Track quality 100.0 %
     Test CRC A215515F
     Copy CRC A215515F
     Copy OK

Track 11

     Filename C:\RIPS\Superpitcher - Kilimanjaro - 2010\11 - Holiday Hearts.wav

     Peak level 86.6 %
     Track quality 100.0 %
     Test CRC 8DA65175
     Copy CRC 8DA65175
     Copy OK

No errors occurred

End of status report
Код:
Код: Выделить всё
REM ACCURATERIPID 001ceeee-00ff250d-af10ca0b
REM DATE 2010
REM GENRE "Electronic"
PERFORMER "Superpitcher"
TITLE "Kilimanjaro"
FILE "01 - Prelude.flac" WAVE
  TRACK 01 AUDIO
    TITLE "Prelude"
    PERFORMER "Superpitcher"
    INDEX 01 00:00:00
  TRACK 02 AUDIO
    TITLE "Voodoo"
    PERFORMER "Superpitcher"
    INDEX 00 01:29:41
FILE "02 - Voodoo.flac" WAVE
    INDEX 01 00:00:00
  TRACK 03 AUDIO
    TITLE "Country Boy"
    PERFORMER "Superpitcher"
    INDEX 00 07:14:65
FILE "03 - Country Boy.flac" WAVE
    INDEX 01 00:00:00
  TRACK 04 AUDIO
    TITLE "Rabbits In A Hurry"
    PERFORMER "Superpitcher"
    INDEX 00 09:49:47
FILE "04 - Rabbits In A Hurry.flac" WAVE
    INDEX 01 00:00:00
  TRACK 05 AUDIO
    TITLE "Friday Night"
    PERFORMER "Superpitcher"
    INDEX 00 07:36:08
FILE "05 - Friday Night.flac" WAVE
    INDEX 01 00:00:00
  TRACK 06 AUDIO
    TITLE "Moon Fever"
    PERFORMER "Superpitcher"
    INDEX 00 07:51:63
FILE "06 - Moon Fever.flac" WAVE
    INDEX 01 00:00:00
  TRACK 07 AUDIO
    TITLE "Give Me My Heart Back"
    PERFORMER "Superpitcher"
    INDEX 00 04:08:15
FILE "07 - Give Me My Heart Back.flac" WAVE
    INDEX 01 00:00:00
  TRACK 08 AUDIO
    TITLE "Who Stole The Sun"
    PERFORMER "Superpitcher"
    INDEX 00 06:34:39
FILE "08 - Who Stole The Sun.flac" WAVE
    INDEX 01 00:00:00
  TRACK 09 AUDIO
    TITLE "Black Magic"
    PERFORMER "Superpitcher"
    INDEX 00 06:01:59
FILE "09 - Black Magic.flac" WAVE
    INDEX 01 00:00:00
FILE "10 - Joanna.flac" WAVE
  TRACK 10 AUDIO
    TITLE "Joanna"
    PERFORMER "Superpitcher"
    INDEX 01 00:00:00
FILE "11 - Holiday Hearts.flac" WAVE
  TRACK 11 AUDIO
    TITLE "Holiday Hearts"
    PERFORMER "Superpitcher"
    INDEX 01 00:00:00
Код:
Код: Выделить всё
-----------------------

DON'T MODIFY THIS FILE

-----------------------

PERFORMER: auCDtect Task Manager, ver. 1.6.0 RC1 build 1.6.0.1
Copyright (c) 2008-2010 y-soft. All rights reserved
http:/y-soft.org

ANALYZER: auCDtect: CD records authenticity detector, version 0.8.2
Copyright (c) 2004 Oleg Berngardt. All rights reserved.
Copyright (c) 2004 Alexander Djourik. All rights reserved.

FILE: 11 - Holiday Hearts.flac
  Size: 27885496 Hash: 66EC7C0C2685D5C3901E3775A851C388 Accuracy: -m0
  Conclusion: CDDA 100%
  Signature: D0E6DF1B13FCD07D21D7C5111292F3B8BDCD16D2
FILE: 10 - Joanna.flac
  Size: 44492409 Hash: 0B43F4833043B6D9E1E5B7A20B21A828 Accuracy: -m0
  Conclusion: CDDA 100%
  Signature: A8D004D7BED77963C7F903552C1A340F554F4498
FILE: 09 - Black Magic.flac
  Size: 58904421 Hash: 626C8DAC1BA4F15BA0F7392C8DBB576E Accuracy: -m0
  Conclusion: CDDA 100%
  Signature: 00BD47988E68E7D442C3136A5333F3A6B152973C
FILE: 08 - Who Stole The Sun.flac
  Size: 39175079 Hash: EC664B131F171A9C6972D97F1F0E69C1 Accuracy: -m0
  Conclusion: CDDA 100%
  Signature: F0E417ABB0EBE2AED00707EA6BF73ADD9E901CA6
FILE: 07 - Give Me My Heart Back.flac
  Size: 41755755 Hash: A361B6469EE9F0D97943DE1051FAF4ED Accuracy: -m0
  Conclusion: CDDA 100%
  Signature: 7DEEC735DD4CBB63A1F05CE23EDD4DA3241CFBBE
FILE: 06 - Moon Fever.flac
  Size: 23157587 Hash: F5CA40CB9F7E6E9CB186DC14C61F7139 Accuracy: -m0
  Conclusion: CDDA 100%
  Signature: 73C34E63E2C98637303EEB7BBC90588717F60C6E
FILE: 05 - Friday Night.flac
  Size: 47368554 Hash: 4EDEB2F2B2A09930F971E9563CB1F385 Accuracy: -m0
  Conclusion: CDDA 100%
  Signature: F69DF1C3FA2243B43CA3F7F818321D131889284E
FILE: 04 - Rabbits In A Hurry.flac
  Size: 48707651 Hash: 5369CC159D5C7EE9AA7A55F70D3D7379 Accuracy: -m0
  Conclusion: CDDA 100%
  Signature: CB2C6A7CEE338A818F67D167732E238435C9758E
FILE: 03 - Country Boy.flac
  Size: 71165280 Hash: 97A77A50B29D714789A5AC2F4FD596D0 Accuracy: -m0
  Conclusion: CDDA 100%
  Signature: 55C43FD3A680F71ED86E2588B9083CAEBC46461D
FILE: 02 - Voodoo.flac
  Size: 44161839 Hash: BE905E392B86AB0A8433AF561F232447 Accuracy: -m0
  Conclusion: CDDA 100%
  Signature: A4B56AA42284D5C9885CDD7E0A6F073C0D986E02
FILE: 01 - Prelude.flac
  Size: 7719046 Hash: D5B6187160AD724494147C650F832412 Accuracy: -m0
  Conclusion: CDDA 100%
  Signature: B4BB0D261F80AB1E4E422ED7B8C1F390F3911CD5

Время раздачи:
16/7 (до появления первых 3-5 скачавших)
#7
Код: Выделить всё
[b]Поглощение/вытеснение [/b]
[b]Только с согласия релизера[/b]
[b][u][i]Pashketan[/b][/i][/u]

 
Не забывайте говорить Спасибо. Не уходите с раздачи!   
Торрент: Зарегистрирован [27 мар 2016, 13:01] Скачать торрент
Скачать торрент
[ Размер 19.39 КБ / Просмотров 30 ]
Статус:
Проверен
 
.torrent скачан: 3 раз
Хэш: 5710a4b4d8700fa5f5e854fcc6701840e032030e
Размер: 452.92 МБ (474 921 136 байт)
Стать Автором раздачи
 
Аватара пользователя
Главный редактор
Главный редактор
 
Раздал: 15.43 ТБ
Скачал: 13.78 ТБ
Ратио: 1.120
Сообщения: 65446
Зарегистрирован: 01 мар 2011, 23:07


  • Похожие торренты
    Ответы
    Просмотры
    Последнее сообщение

Вернуться в House, Techno, Electro, Minimal (транзит Lossless)

Ресурс не предоставляет электронные версии произведений, а занимается лишь коллекционированием и каталогизацией ссылок, присылаемых и публикуемых на форуме нашими читателями. Если вы являетесь правообладателем какого-либо представленного материала и не желаете чтобы ссылка на него находилась в нашем каталоге, свяжитесь с нами и мы незамедлительно удалим её. Файлы для обмена на трекере предоставлены пользователями сайта, и администрация не несёт ответственности за их содержание. Просьба не заливать файлы, защищенные авторскими правами, а также файлы нелегального содержания!
cron