Потомки Ариев (2016) HDTVRip

 
 Статистика раздачи 
Размер: 1.11 ГБ   |  Зарегистрирован: 26 мар 2016, 01:29   |   .torrent скачан: 0 раз
Сидеров: 1  [ 0 байт/сек ]     Личеров: 0  [ 0 байт/сек ]  
  

Потомки Ариев (2016) HDTVRip

Сообщение PetaByte » 26 мар 2016, 01:29

Потомки Ариев (2016) HDTVRip

Телекомпания: Рен ТВ
Жанр: Документальный, Телепередача

Описание:
Сенсация, которая поразила научный мир.
Колыбель европейской цивилизации находилась на русской равнине, а не в Греции и Месопотамии.
Коренные жители Сибири не имеют ничего общего с азиатскими кочевниками.
Наречия жителей северных деревень очень схожи с санскритом.
Кто жил на территории России 45 тысяч лет назад?
Где зародилась первая цивилизация на Земле?
Откуда пришли таинственные арии?
И что общего между ариями и древними славянами?
Открытия историков и археологов невероятнее, чем самые смелые прогнозы фантастов.

Продолжительность: 01:35:07
Качество видео: HDTVRip

Видео: DivX 4, 1280x720, ~7368 Kbps
Аудио: AAC, 2 ch, 1118
Код:
Код: Выделить всё
Формат                                   : MPEG-4
Профиль формата                          : Base Media / Version 2
Идентификатор кодека                     : mp42 (isom/mp42)
Размер файла                             : 1,11 Гбайт
Продолжительность                        : 1 ч. 35 м.
Режим общего битрейта                    : Переменный
Общий поток                              : 1674 Кбит/сек
Дата кодирования                         : UTC 2016-03-23 10:36:01
Дата пометки                             : UTC 2016-03-23 10:36:01
gsst                                     : 0
gstd                                     : 5707046

Видео
Идентификатор                            : 1
Формат                                   : AVC
Формат/Информация                        : Advanced Video Codec
Профиль формата                          :
Параметр CABAC формата                   : Да
Параметр ReFrames формата                : 1 кадр
Идентификатор кодека                     : avc1
Идентификатор кодека/Информация          : Advanced Video Coding
Продолжительность                        : 1 ч. 35 м.
Битрейт                                  : 1479 Кбит/сек
Максимальный битрейт                     : 7368 Кбит/сек
Ширина                                   : 1280 пикселей
Высота                                   : 720 пикселей
Соотношение сторон                       : 16:9
Режим частоты кадров                     : Постоянный
Частота кадров                           : 25,000 кадров/сек
Цветовое пространство                    : YUV
Субдискретизация насыщенности            : 4:2:0
Битовая глубина                          : 8 бит
Тип развёртки                            : Прогрессивная
Бит/(Пиксели*Кадры)                      : 0.064
Размер потока                            : 1006 Мбайт (88%)
Дата пометки                             : UTC 2016-03-23 10:37:48

Аудио
Идентификатор                            : 2
Формат                                   : AAC
Формат/Информация                        : Advanced Audio Codec
Профиль формата                          : LC
Идентификатор кодека                     : 40
Продолжительность                        : 1 ч. 35 м.
Вид битрейта                             : Переменный
Битрейт                                  : 192 Кбит/сек
Максимальный битрейт                     : 202 Кбит/сек
Каналы                                   : 2 канала
Расположение каналов                     : Front: L R
Частота                                  : 44,1 КГц
Частота кадров                           : 43,066 кадра/сек (1024 spf)
Метод сжатия                             : С потерями
Размер потока                            : 131 Мбайт (11%)
Заголовок                                : IsoMedia File Produced by Google, 5-11-2011
Дата кодирования                         : UTC 2016-03-23 10:37:03
Дата пометки                             : UTC 2016-03-23 10:37:48

Скриншоты:

http://s020.radikal.ru/i702/1603/10/39f944a52e96.jpg
http://s46.radikal.ru/i111/1603/a7/9d5fb6d57a5c.jpg
http://s019.radikal.ru/i642/1603/ca/fdaf398d221e.jpg
http://s019.radikal.ru/i620/1603/35/eaeb663fb4b7.jpg

Время раздачи: с 11:00 до 02:00 (до появления первых 3-5 скачавших)
 
Не забывайте говорить Спасибо. Не уходите с раздачи!   
Торрент: Зарегистрирован [26 мар 2016, 01:29] Для скачивания .torrent
необходима регистрация
Или скачать с помощью
MediaGet
Статус:
Проверен
 
.torrent скачан: 0 раз
Хэш: 836c86d2d7901642784f95ad944a994eee60d793
Размер: 1.11 ГБ (1 193 834 670 байт)
Стать Автором раздачи
 
 
Раздал: 10 ГБ
Скачал: 8 МБ
Ратио: 1280.000
Сообщения: 234240
Зарегистрирован: 22 фев 2013, 11:10


  • Похожие торренты
    Ответы
    Просмотры
    Последнее сообщение

Вернуться в Видео для мобильных устройств

Ресурс не предоставляет электронные версии произведений, а занимается лишь коллекционированием и каталогизацией ссылок, присылаемых и публикуемых на форуме нашими читателями. Если вы являетесь правообладателем какого-либо представленного материала и не желаете чтобы ссылка на него находилась в нашем каталоге, свяжитесь с нами и мы незамедлительно удалим её. Файлы для обмена на трекере предоставлены пользователями сайта, и администрация не несёт ответственности за их содержание. Просьба не заливать файлы, защищенные авторскими правами, а также файлы нелегального содержания!
cron