Underworld - A Collection (2012) Compilation [FLAC|Lossless|tracks + .cue] <Progressive House, Techno, Progressive Trance>

 
 Статистика раздачи 
Размер: 538.55 МБ   |  Зарегистрирован: 24 мар 2016, 07:53   |   .torrent скачан: 3 раз
Сидеров: 1  [ 0 байт/сек ]     Личеров: 0  [ 0 байт/сек ]  
  

Underworld - A Collection (2012) Compilation [FLAC|Lossless|tracks + .cue] <Progressive House, Techno, Progressive Trance>

Сообщение BitFire » 24 мар 2016, 07:53

Underworld - A Collection (2012) Compilation

Год: 2012
Жанр: Progressive House, Techno, Progressive Trance
Издание: Soyuz Music/Underworldlive.com ‎– UWR00044-2
Продолжительность: 01:09:14

Кодек: FLAC
Битрейт: Lossless
Тип рипа: tracks + .cue

Треклист:
01. High Contrast – The First Note Is Silent (feat. Tiesto & Underworld) (3:39)
02. Underworld – Scribble (3:48)
03. Brian Eno & Karl Hyde – Beebop Hurry (3:08)
04. Mark Knight, D Ramirez & Underworld – Downpipe (3:20)
05. Underworld – Crocodile (3:50)
06. Underworld – To Heal (2:34)
07. Underworld – Two Months Off (3:58)
08. Underworld – Jumbo (4:06)
09. Underworld – Born Slippy Nuxx (4:21)
10. Underworld – Dark And Long (Dark Train) (2011 Edit) (6:14)
11. Underworld – Mmm Skyscraper I Love You (2011 Edit) (7:45)
12. Underworld – Pearl's Girl (4:22)
13. Underworld – Cowgirl (Live) (3:39)
14. Underworld – Rez (2011 Edit) (5:59)
15. Underworld – King Of Snake (3:50)
16. Underworld – Moaner (4:08)
Код:
Код: Выделить всё
Exact Audio Copy V1.0 beta 3 from 29. August 2011

EAC extraction logfile from 7. October 2014, 21:45

Underworld / A Collection

Used drive  : Optiarc DVD RW AD-5280S   Adapter: 1  ID: 1

Read mode               : Secure
Utilize accurate stream : Yes
Defeat audio cache      : Yes
Make use of C2 pointers : No

Read offset correction                      : 48
Overread into Lead-In and Lead-Out          : No
Fill up missing offset samples with silence : Yes
Delete leading and trailing silent blocks   : No
Null samples used in CRC calculations       : Yes
Used interface                              : Native Win32 interface for Win NT & 2000
Gap handling                                : Appended to previous track

Used output format              : User Defined Encoder
Selected bitrate                : 128 kBit/s
Quality                         : High
Add ID3 tag                     : No
Command line compressor         : C:\Program Files\Exact Audio Copy\FLAC\FLAC.EXE
Additional command line options : -V -8 -T "Genre=%genre%" -T "Artist=%artist%" -T "Title=%title%" -T "Album=%albumtitle%" -T "Date=%year%" -T "Tracknumber=%tracknr%" -T "Comment=%comment%" %source%

TOC of the extracted CD

     Track |   Start  |  Length  | Start sector | End sector
    ---------------------------------------------------------
        1  |  0:00.00 |  3:39.55 |         0    |    16479
        2  |  3:39.55 |  3:50.23 |     16480    |    33752
        3  |  7:30.03 |  3:09.30 |     33753    |    47957
        4  | 10:39.33 |  3:19.48 |     47958    |    62930
        5  | 13:59.06 |  3:51.73 |     62931    |    80328
        6  | 17:51.04 |  2:36.33 |     80329    |    92061
        7  | 20:27.37 |  3:57.59 |     92062    |   109895
        8  | 24:25.21 |  4:08.22 |    109896    |   128517
        9  | 28:33.43 |  4:24.14 |    128518    |   148331
       10  | 32:57.57 |  6:17.49 |    148332    |   176655
       11  | 39:15.31 |  7:48.36 |    176656    |   211791
       12  | 47:03.67 |  4:25.26 |    211792    |   231692
       13  | 51:29.18 |  3:41.56 |    231693    |   248323
       14  | 55:10.74 |  6:02.38 |    248324    |   275511
       15  | 61:13.37 |  3:52.45 |    275512    |   292956
       16  | 65:06.07 |  4:08.02 |    292957    |   311558

Track  1

     Filename A:\A Collection\01. High Contrast Feat. Tiesto & Underworld - The First Note Is Silent.wav

     Pre-gap length  0:00:02.00

     Peak level 97.2 %
     Extraction speed 2.1 X
     Track quality 99.9 %
     Test CRC 723982DA
     Copy CRC 723982DA
     Cannot be verified as accurate (confidence 14)  [47E49A8F], AccurateRip returned [4C6A9EE0]  (AR v2)
     Copy OK

Track  2

     Filename A:\A Collection\02. Underworld - Scribble.wav

     Peak level 100.0 %
     Extraction speed 2.6 X
     Track quality 100.0 %
     Test CRC F3ED86F6
     Copy CRC F3ED86F6
     Cannot be verified as accurate (confidence 15)  [C1037221], AccurateRip returned [DF54BF2E]  (AR v2)
     Copy OK

Track  3

     Filename A:\A Collection\03. Brian Eno & Karl Hyde - Beebop Hurry.wav

     Peak level 99.8 %
     Extraction speed 2.7 X
     Track quality 100.0 %
     Test CRC F3411AA0
     Copy CRC F3411AA0
     Cannot be verified as accurate (confidence 15)  [26DF7D30], AccurateRip returned [555F5724]  (AR v2)
     Copy OK

Track  4

     Filename A:\A Collection\04. Mark Knight & D. Ramirez Vs Underworld - Downpipe.wav

     Peak level 99.7 %
     Extraction speed 2.9 X
     Track quality 100.0 %
     Test CRC E3AD7134
     Copy CRC E3AD7134
     Cannot be verified as accurate (confidence 15)  [1B0FF7ED], AccurateRip returned [7E5BB30F]  (AR v2)
     Copy OK

Track  5

     Filename A:\A Collection\05. Underworld - Crocodile.wav

     Peak level 100.0 %
     Extraction speed 3.2 X
     Track quality 100.0 %
     Test CRC 464C1A30
     Copy CRC 464C1A30
     Cannot be verified as accurate (confidence 15)  [FFF7229B], AccurateRip returned [F1D97F4A]  (AR v2)
     Copy OK

Track  6

     Filename A:\A Collection\06. Underworld - To Heal.wav

     Peak level 99.1 %
     Extraction speed 3.1 X
     Track quality 100.0 %
     Test CRC D7B8C758
     Copy CRC D7B8C758
     Cannot be verified as accurate (confidence 15)  [E5643805], AccurateRip returned [6006EDE5]  (AR v2)
     Copy OK

Track  7

     Filename A:\A Collection\07. Underworld - Two Months Off.wav

     Peak level 86.9 %
     Extraction speed 3.5 X
     Track quality 100.0 %
     Test CRC E503372A
     Copy CRC E503372A
     Cannot be verified as accurate (confidence 15)  [C6C1B0C4], AccurateRip returned [45DECCDC]  (AR v2)
     Copy OK

Track  8

     Filename A:\A Collection\08. Underworld - Jumbo.wav

     Peak level 86.9 %
     Extraction speed 3.3 X
     Track quality 99.9 %
     Test CRC 262383CD
     Copy CRC 262383CD
     Cannot be verified as accurate (confidence 15)  [0241940E], AccurateRip returned [378714B1]  (AR v2)
     Copy OK

Track  9

     Filename A:\A Collection\09. Underworld - Born Slippy Nuxx.wav

     Peak level 99.8 %
     Extraction speed 3.9 X
     Track quality 100.0 %
     Test CRC 66B64BE1
     Copy CRC 66B64BE1
     Cannot be verified as accurate (confidence 15)  [75CCE305], AccurateRip returned [CA447927]  (AR v2)
     Copy OK

Track 10

     Filename A:\A Collection\10. Underworld - Dark & Long (Dark Train 2011 Edit).wav

     Peak level 99.8 %
     Extraction speed 4.2 X
     Track quality 100.0 %
     Test CRC BA808694
     Copy CRC BA808694
     Cannot be verified as accurate (confidence 15)  [C7F8F2B8], AccurateRip returned [9AC7AF04]  (AR v2)
     Copy OK

Track 11

     Filename A:\A Collection\11. Underworld - MMM Skyscraper I Love You (2011 Edit).wav

     Peak level 99.7 %
     Extraction speed 4.5 X
     Track quality 100.0 %
     Test CRC 7D88735A
     Copy CRC 7D88735A
     Cannot be verified as accurate (confidence 15)  [B8363B12], AccurateRip returned [D9538B94]  (AR v2)
     Copy OK

Track 12

     Filename A:\A Collection\12. Underworld - Pearls Girl.wav

     Peak level 99.4 %
     Extraction speed 4.5 X
     Track quality 100.0 %
     Test CRC 97BD5490
     Copy CRC 97BD5490
     Cannot be verified as accurate (confidence 15)  [007681F8], AccurateRip returned [8FF7E90B]  (AR v2)
     Copy OK

Track 13

     Filename A:\A Collection\13. Underworld - Cowgirl (Live).wav

     Peak level 97.9 %
     Extraction speed 4.0 X
     Track quality 99.9 %
     Test CRC F1B79535
     Copy CRC F1B79535
     Cannot be verified as accurate (confidence 15)  [B2237F3D], AccurateRip returned [9885344F]  (AR v2)
     Copy OK

Track 14

     Filename A:\A Collection\14. Underworld - Rez (2011 Edit).wav

     Peak level 99.8 %
     Extraction speed 4.6 X
     Track quality 99.9 %
     Test CRC 3A232443
     Copy CRC 3A232443
     Cannot be verified as accurate (confidence 15)  [7CFF5A1B], AccurateRip returned [231BCE88]  (AR v2)
     Copy OK

Track 15

     Filename A:\A Collection\15. Underworld - King Of Snake.wav

     Peak level 86.9 %
     Extraction speed 4.9 X
     Track quality 100.0 %
     Test CRC 6D7C8622
     Copy CRC 6D7C8622
     Cannot be verified as accurate (confidence 15)  [3A4CF90D], AccurateRip returned [15552B64]  (AR v2)
     Copy OK

Track 16

     Filename A:\A Collection\16. Underworld - Moaner.wav

     Peak level 99.8 %
     Extraction speed 4.5 X
     Track quality 99.9 %
     Test CRC 53E0BA5B
     Copy CRC 53E0BA5B
     Cannot be verified as accurate (confidence 14)  [FD35B149], AccurateRip returned [4A5EAB36]  (AR v2)
     Copy OK

No tracks could be verified as accurate
You may have a different pressing from the one(s) in the database

No errors occurred

End of status report

---- CUETools DB Plugin V2.1.3

[CTDB TOCID: _2eIyH32MMZOfMwa2TbrcMbqKD4-] found, Submit result: _2eIyH32MMZOfMwa2TbrcMbqKD4- has been submitted
[6d317f2a] (18/19) Differs in 57 samples @07:38:53,51:19:52
[7cda1a82] (01/19) No match
You can use CUETools to repair this rip.

==== Log checksum C826644DCE1EF4BA5898146EAB085045B947196794DB058C2D909A8103F0ED7A ====
Код:
Код: Выделить всё
-----------------------

DON'T MODIFY THIS FILE

-----------------------

PERFORMER: auCDtect Task Manager, ver. 1.6.0 RC1 build 1.6.0.1
Copyright (c) 2008-2010 y-soft. All rights reserved
http:/y-soft.org

ANALYZER: auCDtect: CD records authenticity detector, version 0.8.2
Copyright (c) 2004 Oleg Berngardt. All rights reserved.
Copyright (c) 2004 Alexander Djourik. All rights reserved.

FILE: 16. Underworld - Moaner.flac
  Size: 29393683 Hash: F2973FAB7C036AF9D54C164C78943F0D Accuracy: -m0
  Conclusion: CDDA 100%
  Signature: 4E5E174A8A5FE4983ABB4131F57A52FB848A040C
FILE: 15. Underworld - King Of Snake.flac
  Size: 30832801 Hash: 01915CA9174B5FB1033319FD2C38D296 Accuracy: -m0
  Conclusion: CDDA 100%
  Signature: E8BC7146353362403ACA2942DCE3900C2264D53C
FILE: 14. Underworld - Rez (2011 Edit).flac
  Size: 46313818 Hash: 06A4A60427C05CF15A121C75DFD5556C Accuracy: -m0
  Conclusion: CDDA 100%
  Signature: 0FFCBC18DD0263D93DC7977DFFFC08889538045D
FILE: 13. Underworld - Cowgirl (Live).flac
  Size: 27235452 Hash: 1FF7119CCC6233FD4F9F44EBB53ED893 Accuracy: -m0
  Conclusion: CDDA 100%
  Signature: AE20CBF5E876A5D8E8BA335967E8E2D1AE5F612F
FILE: 12. Underworld - Pearls Girl.flac
  Size: 34099408 Hash: 0C1BE8C944F98C720767904C72504DC7 Accuracy: -m0
  Conclusion: CDDA 100%
  Signature: E2E3518B1222C00801186FADB50CA6ACC0F32633
FILE: 11. Underworld - MMM Skyscraper I Love You (2011 Edit).flac
  Size: 54720298 Hash: F87AB45C51A279692940209F0250B17F Accuracy: -m0
  Conclusion: CDDA 100%
  Signature: C3FB8605EDF5636C81E9F8E08A0A79B2976C1EAE
FILE: 10. Underworld - Dark & Long (Dark Train 2011 Edit).flac
  Size: 44552029 Hash: 83EDA95826CF1E31AC855C0E99021E6F Accuracy: -m0
  Conclusion: CDDA 100%
  Signature: D3BC00B7A5B9A41F4B57625CE156E8CC307BB2A1
FILE: 09. Underworld - Born Slippy Nuxx.flac
  Size: 33339343 Hash: B622B1A2D540390874DA46CF704C10E3 Accuracy: -m0
  Conclusion: CDDA 100%
  Signature: 82E2E35C1A9028F785AACA2B6258DF9C8DFED525
FILE: 08. Underworld - Jumbo.flac
  Size: 31162156 Hash: 454F76BB2DAE0BF8EE29C3959ADDB256 Accuracy: -m0
  Conclusion: CDDA 100%
  Signature: 4454CCFEC92295491228140D9691D31B5EABB430
FILE: 07. Underworld - Two Months Off.flac
  Size: 31302366 Hash: FA2EF8BF6D2BE848F39FADC51D9B6403 Accuracy: -m0
  Conclusion: CDDA 100%
  Signature: 119FE5CAEE4CF591A3D8077ADD6AAC3E54ACE27D
FILE: 06. Underworld - To Heal.flac
  Size: 12595117 Hash: 1BF754B4CD12C6A7350D007A9862707F Accuracy: -m0
  Conclusion: CDDA 100%
  Signature: 83BF3FE05D389F4E87D1EA0D7855A3D83EE965DA
FILE: 05. Underworld - Crocodile.flac
  Size: 28523410 Hash: E5569695EC014470182DC6027E23C44C Accuracy: -m0
  Conclusion: CDDA 100%
  Signature: 75B542EDA22A98BEA234E6E06673F131C3D40923
FILE: 04. Mark Knight & D. Ramirez Vs Underworld - Downpipe.flac
  Size: 25461616 Hash: A9BE79B58BB62AEBF8562ED354C428FD Accuracy: -m0
  Conclusion: CDDA 100%
  Signature: E7005F1965708CF06A508E402A67ECA256CF3E56
FILE: 03. Brian Eno & Karl Hyde - Beebop Hurry.flac
  Size: 23955797 Hash: 7A9AE38224F5904B0121316CFC8431CB Accuracy: -m0
  Conclusion: CDDA 100%
  Signature: 04CDEF215399398CEBABF2B9DF1FA80E39F9D533
FILE: 02. Underworld - Scribble.flac
  Size: 30296160 Hash: A206C2BF030B14F124E2D98AF17356E0 Accuracy: -m0
  Conclusion: CDDA 100%
  Signature: 0B365F7BB673D50E551432B5DAF7BDDAA63390EA
FILE: 01. High Contrast Feat. Tiesto & Underworld - The First Note Is Silent.flac
  Size: 27546031 Hash: A59B75E233F981FCBDA8791B88C94298 Accuracy: -m0
  Conclusion: CDDA 100%
  Signature: 4FCFC84A85C812EAB644B179C8A8BDE15DF5A8C7
Время раздачи: 16/7 (до появления первых 3-5 скачавших)
 
Не забывайте говорить Спасибо. Не уходите с раздачи!   
Торрент: Зарегистрирован [24 мар 2016, 07:53] Скачать торрент
Скачать торрент
[ Размер 13.1 КБ / Просмотров 41 ]
Статус:
Проверен
 
.torrent скачан: 3 раз
Хэш: 380b0677a234ea2bd8685195c9c100ad1758b6c7
Размер: 538.55 МБ (564 709 675 байт)
Стать Автором раздачи
 
 
Раздал: 398.6 ГБ
Скачал: 172 МБ
Ратио: 2373.085
Сообщения: 228130
Зарегистрирован: 17 апр 2014, 15:26


  • Похожие торренты
    Ответы
    Просмотры
    Последнее сообщение

Вернуться в House, Techno, Electro, Minimal (транзит Lossless)

Ресурс не предоставляет электронные версии произведений, а занимается лишь коллекционированием и каталогизацией ссылок, присылаемых и публикуемых на форуме нашими читателями. Если вы являетесь правообладателем какого-либо представленного материала и не желаете чтобы ссылка на него находилась в нашем каталоге, свяжитесь с нами и мы незамедлительно удалим её. Файлы для обмена на трекере предоставлены пользователями сайта, и администрация не несёт ответственности за их содержание. Просьба не заливать файлы, защищенные авторскими правами, а также файлы нелегального содержания!
cron