Аттенборо и гигантский динозавр / BBC. Attenborough and the Giant Dinosaur (Шарлотта Скотт / Charlotte Scott) [2016, документальный, HDTVRip 720p]

 
 Статистика раздачи 
Размер: 1.45 ГБ   |  Зарегистрирован: 22 мар 2016, 23:02   |   .torrent скачан: 3 раз
Сидеров: 9  [ 0 байт/сек ]     Личеров: 3  [ 0 байт/сек ]  
  

Аттенборо и гигантский динозавр / BBC. Attenborough and the Giant Dinosaur (Шарлотта Скотт / Charlotte Scott) [2016, документальный, HDTVRip 720p]

Сообщение i926 » 22 мар 2016, 23:02

Аттенборо и гигантский динозавр
Attenborough and the Giant Dinosaur
Год выпуска: 2016
Страна: Великобритания
Студия: BBC
Жанр: документальный
Продолжительность: 00:58:24
Перевод: Одноголосый (закадровый) -
Субтитры: английские

Режиссёр: Шарлотта Скотт / Charlotte Scott
Рассказчик: Дэвид Аттенборо / David Attenborough

Описание: История о 220 костях, найденных в аргентинской пустыне, которые окажутся принадлежащими ранее неизвестному виду динозавра. Динозавра, возможно, крупнейшего, из существовавших на земле. Дэвид Аттенборо вместе с палеонтологом доктором Диего Полом окажется на месте раскопок и в лаборатории, где останки будут очищены и проанализированы, и встретится с другими экспертами, работающими над реконструкцией огромного скелета.

Тип релиза: HDTVRip 720p
Контейнер: MKV
Видео: MPEG-4 AVC, 1280x720 (16:9), 25.000 fps, 3000 Kbps
Аудио: Russian AC-3, 2 ch, 48 KHz, 384 Kbps
Аудио 2: English AAC, 2 ch, 48 KHz, 160 Kbps
Формат субтитров: softsub (SRT)

Сэмпл
General
Unique ID : 210108566989774376524484960816989529441 (0x9E1170259A986B35B6C808A75454E561)
Complete name : C:\Attenborough.and.the.Giant.Dinosaur.720p.HDTV.mkv
Format : Matroska
Format version : Version 4 / Version 2
File size : 1.45 GiB
Duration : 58mn 24s
Overall bit rate : 3 553 Kbps
Encoded date : UTC 2016-03-21 16:24:28
Writing application : mkvmerge v8.8.0 ('Wind at my back') 64bit
Writing library : libebml v1.3.3 + libmatroska v1.4.4

Video
ID : 1
Format : AVC
Format/Info : Advanced Video Codec
Format profile : High@L4.1
Format settings, CABAC : Yes
Format settings, ReFrames : 4 frames
Codec ID : V_MPEG4/ISO/AVC
Duration : 58mn 24s
Bit rate : 3 000 Kbps
Width : 1 280 pixels
Height : 720 pixels
Display aspect ratio : 16:9
Frame rate mode : Constant
Frame rate : 25.000 fps
Color space : YUV
Chroma subsampling : 4:2:0
Bit depth : 8 bits
Scan type : Progressive
Bits/(Pixel*Frame) : 0.130
Stream size : 1.23 GiB (85%)
Writing library : x264 core 142 r2479 dd79a61
Encoding settings : cabac=1 / ref=1 / deblock=1:0:0 / analyse=0x3:0x3 / me=dia / subme=1 / psy=1 / psy_rd=1.00:0.00 / mixed_ref=0 / me_range=16 / chroma_me=1 / trellis=0 / 8x8dct=1 / cqm=0 / deadzone=21,11 / fast_pskip=1 / chroma_qp_offset=0 / threads=3 / lookahead_threads=1 / sliced_threads=0 / nr=0 / decimate=1 / interlaced=0 / bluray_compat=0 / constrained_intra=0 / bframes=3 / b_pyramid=2 / b_adapt=1 / b_bias=0 / direct=1 / weightb=1 / open_gop=0 / weightp=1 / keyint=250 / keyint_min=25 / scenecut=40 / intra_refresh=0 / rc_lookahead=0 / rc=abr / mbtree=0 / bitrate=3000 / ratetol=1.0 / qcomp=0.60 / qpmin=0 / qpmax=69 / qpstep=4 / vbv_maxrate=62500 / vbv_bufsize=78125 / nal_hrd=none / filler=0 / ip_ratio=1.40 / pb_ratio=1.30 / aq=1:1.00
Default : Yes
Forced : No
Color range : Limited
Color primaries : BT.709
Transfer characteristics : BT.709
Matrix coefficients : BT.709

Audio #1
ID : 2
Format : AC-3
Format/Info : Audio Coding 3
Mode extension : CM (complete main)
Format settings, Endianness : Big
Codec ID : A_AC3
Duration : 58mn 23s
Bit rate mode : Constant
Bit rate : 384 Kbps
Channel(s) : 2 channels
Channel positions : Front: L R
Sampling rate : 48.0 KHz
Frame rate : 31.250 fps (1536 spf)
Compression mode : Lossy
Stream size : 160 MiB (11%)
Language : Russian
Default : Yes
Forced : No

Audio #2
ID : 3
Format : AAC
Format/Info : Advanced Audio Codec
Format profile : LC
Codec ID : A_AAC
Duration : 58mn 24s
Bit rate : 160 Kbps
Channel(s) : 2 channels
Channel positions : Front: L R
Sampling rate : 48.0 KHz
Frame rate : 46.875 fps (1024 spf)
Compression mode : Lossy
Stream size : 67.0 MiB (5%)
Language : English
Default : No
Forced : No

Text
ID : 4
Format : UTF-8
Codec ID : S_TEXT/UTF8
Codec ID/Info : UTF-8 Plain Text
Duration : 57mn 40s
Bit rate : 76 bps
Count of elements : 720
Stream size : 32.2 KiB (0%)
Language : English
Default : No
Forced : No
 
Не забывайте говорить Спасибо. Не уходите с раздачи!   
Торрент: Зарегистрирован [22 мар 2016, 23:02] Для скачивания .torrent
необходима регистрация
Или скачать с помощью
MediaGet
Статус:
Проверен
 
.torrent скачан: 3 раз
Хэш: 37e2cfec1c55f8b7b8f0e331d41ddb091f8882e7
Размер: 1.45 ГБ (1 556 512 350 байт)
Стать Автором раздачи
 
Аватара пользователя
Главный редактор
Главный редактор
 
Раздал: 15.42 ТБ
Скачал: 13.46 ТБ
Ратио: 1.146
Сообщения: 64781
Зарегистрирован: 01 мар 2011, 23:07


  • Похожие торренты
    Ответы
    Просмотры
    Последнее сообщение

Вернуться в Естествознание, наука и техника (HD Video)

Кто сейчас на конференции

Сейчас эту тему просматривают: нет зарегистрированных пользователей и гости: 1

Ресурс не предоставляет электронные версии произведений, а занимается лишь коллекционированием и каталогизацией ссылок, присылаемых и публикуемых на форуме нашими читателями. Если вы являетесь правообладателем какого-либо представленного материала и не желаете чтобы ссылка на него находилась в нашем каталоге, свяжитесь с нами и мы незамедлительно удалим её. Файлы для обмена на трекере предоставлены пользователями сайта, и администрация не несёт ответственности за их содержание. Просьба не заливать файлы, защищенные авторскими правами, а также файлы нелегального содержания!