Живые :Стремящиеся выжить / Живые: Двадцать лет спустя /Alive: The Miracle of the Andes /Alive: 20 Years Later (Джилл Фуллертон-Смит / Jill Fullerton-Smith) [1993, Документальный, DVDRip] AVO (А.Гаврилов)

 
 Статистика раздачи 
Размер: 701.96 МБ   |  Зарегистрирован: 22 мар 2016, 18:17   |   .torrent скачан: 1 раз
Сидеров: 2  [ 0 байт/сек ]     Личеров: 0  [ 0 байт/сек ]  
  

Живые :Стремящиеся выжить / Живые: Двадцать лет спустя /Alive: The Miracle of the Andes /Alive: 20 Years Later (Джилл Фуллертон-Смит / Jill Fullerton-Smith) [1993, Документальный, DVDRip] AVO (А.Гаврилов)

Сообщение i926 » 22 мар 2016, 18:17

Живые :Стремящиеся выжить / Живые: Двадцать лет спустя /Alive: The Miracle of the Andes /Alive: 20 Years Later

Дата/Год выпуска: 15 января / 1993
Страна: США
Жанр: Документальный
Продолжительность: 00:47:46
Перевод: Авторский (одноголосый закадровый) А. Гаврилов
Режиссер: Джилл Фуллертон-Смит / Jill Fullerton-Smith

Описание: Эта потрясающая до глубины души, подлинная история произошла осенью 1972 года в пятницу тринадцатого (!) октября. В этот день над Андами потерпел катастрофу авиалайнер, на борту которого находилась школьная сборная по регби из Уругвая. Самолет рухнул на высокогорное плато, которое было полностью отрезано от внешнего мира. Здесь, среди дикой стужи и трупов, горстке оставшихся в живых школьников предстоял жестокий, нечеловеческий тест на выживание. Семьдесят два бесконечных, мучительных дня молодые люди боролись за свою жизнь. Убежищем им служили обломки самолета, пищей - тела погибших товарищей. Иногда приходится превратиться в зверя, чтобы остаться человеком... Фильм является подробным описанием этих ужасных событий.

Доп. информация: За звуковую дорожку спасибо Evil ED 86

Сэмпл: https://www.sendspace.com/file/xcw8g0

качество: DVDRip
формат: AVI
Видео: XviD MPEG-4 , 640x480 (1.33:1) , 25.000 fps , 1 853 Kbps
Аудио: АC3 , 48 kHz , 192.00 kbps avg , 2/0 (L,R) ch
Код: Выделить всё
Complete name            Живые 20 лет спустя 1993.avi
Format                      : AVI
Format/Info                 : Audio Video Interleave
File size                   : 702 MiB
Duration                    : 47mn 46s
Overall bit rate            : 2 055 Kbps
Writing application         : VirtualDubMod 1.5.10.3 | www.virtualdub-fr.org || (build 2550/release)
Writing library             : VirtualDub build 35491/release

Video
ID                          : 0
Format                      : MPEG-4 Visual
Format profile              : Advanced Simple@L5
Format settings, BVOP       : 1
Format settings, QPel       : No
Format settings, GMC        : No warppoints
Format settings, Matrix     : Custom
Codec ID                    : XVID
Codec ID/Hint               : XviD
Duration                    : 47mn 46s
Bit rate                    : 1 853 Kbps
Width                       : 640 pixels
Height                      : 480 pixels
Display aspect ratio        : 4:3
Frame rate                  : 25.000 fps
Color space                 : YUV
Chroma subsampling          : 4:2:0
Bit depth                   : 8 bits
Scan type                   : Progressive
Compression mode            : Lossy
Bits/(Pixel*Frame)          : 0.241
Stream size                 : 633 MiB (90%)
Writing library             : XviD 73

Audio
ID                          : 1
Format                      : AC-3
Format/Info                 : Audio Coding 3
Mode extension              : CM (complete main)
Format settings, Endianness : Big
Codec ID                    : 2000
Duration                    : 47mn 46s
Bit rate mode               : Constant
Bit rate                    : 192 Kbps
Channel(s)                  : 2 channels
Channel positions           : Front: L R
Sampling rate               : 48.0 KHz
Frame rate                  : 31.250 fps (1536 spf)
Compression mode            : Lossy
Stream size                 : 65.6 MiB (9%)
Alignment                   : Aligned on interleaves
Interleave, duration        : 40 ms (1.00 video frame)
Interleave, preload duratio : 512 ms
 
Не забывайте говорить Спасибо. Не уходите с раздачи!   
Торрент: Зарегистрирован [22 мар 2016, 18:17] Для скачивания .torrent
необходима регистрация
Или скачать с помощью
MediaGet
Статус:
Проверен
 
.torrent скачан: 1 раз
Хэш: 274fce831f0a756b1ecf9cea40cd3b65b290cc94
Размер: 701.96 МБ (736 063 424 байт)
Стать Автором раздачи
 
Аватара пользователя
Главный редактор
Главный редактор
 
Раздал: 15.43 ТБ
Скачал: 13.78 ТБ
Ратио: 1.120
Сообщения: 65096
Зарегистрирован: 01 мар 2011, 23:07


  • Похожие торренты
    Ответы
    Просмотры
    Последнее сообщение

Вернуться в Аварии / Катастрофы / Катаклизмы

Ресурс не предоставляет электронные версии произведений, а занимается лишь коллекционированием и каталогизацией ссылок, присылаемых и публикуемых на форуме нашими читателями. Если вы являетесь правообладателем какого-либо представленного материала и не желаете чтобы ссылка на него находилась в нашем каталоге, свяжитесь с нами и мы незамедлительно удалим её. Файлы для обмена на трекере предоставлены пользователями сайта, и администрация не несёт ответственности за их содержание. Просьба не заливать файлы, защищенные авторскими правами, а также файлы нелегального содержания!
cron