Ледниковый Период: Погоня за яйцами / Ice Age: The Great Egg-Scape (2016) HDRip [H.264] [MP4|960х544]

 
 Статистика раздачи 
Размер: 245.23 МБ   |  Зарегистрирован: 22 мар 2016, 01:23   |   .torrent скачан: 1 раз
Сидеров: 1  [ 0 байт/сек ]     Личеров: 0  [ 0 байт/сек ]  
  

Ледниковый Период: Погоня за яйцами / Ice Age: The Great Egg-Scape (2016) HDRip [H.264] [MP4|960х544]

Сообщение BitFire » 22 мар 2016, 01:23

Ледниковый Период: Погоня за яйцами / Ice Age: The Great Egg-Scape (2016) HDRip

Производство: США
Жанр: Анимация, Приключения, Короткометражный

Режиссер: Рикардо Кертис
Актеры: Блейк Андерсон Лили Эстефан Сет Грин Габриэль Иглесиас Дэнис Лири Джон Легуизамо Джош Пек Куин Латифа Рэй Романо Шонн Уильям Скотт

Описание:
Скрэт, Мэнни, Сид, Диего и другие доисторические герои Ледникового Периода в совершенно новом уморительном анимационном приключении! Новый бизнес Сида по высиживанию яиц успешно развивается, но когда подлый кролик –пират Сквинт крадет яйца, Мэнни, Диего и остальные отправляются в бесстрашную спасательную операцию , которой суждено стать первой в истории погоней за яйцами.


Дата мировой премьеры: 20 марта 2016

Продолжительность: 00:24:31
Качество видео: HDRip
Перевод: Дублированный (iTunes)

Видео: AVC/H.264, 960х544, ~1234 Kbps
Аудио: AAC, 2 ch, 160 Kbps - Русский (дублированный)
Код:
Код: Выделить всё
General
Complete name                            : Ледниковый Период Погоня за яйцами (2016).mp4
Format                                   : MPEG-4
Format profile                           : Base Media
Codec ID                                 : isom
File size                                : 245 MiB
Duration                                 : 24mn 31s
Overall bit rate                         : 1 398 Kbps
Movie name                               : Ice Age: The Great Egg-Scapade (2016) [NoNaMe-Club rip by alien.09]
Encoded date                             : UTC 2016-03-21 14:01:00
Tagged date                              : UTC 2016-03-21 14:01:00

Video
ID                                       : 1
Format                                   : AVC
Format/Info                              : Advanced Video Codec
Format profile                           :
Format settings, CABAC                   : Yes
Format settings, ReFrames                : 3 frames
Codec ID                                 : avc1
Codec ID/Info                            : Advanced Video Coding
Duration                                 : 24mn 31s
Bit rate                                 : 1 234 Kbps
Width                                    : 960 pixels
Height                                   : 544 pixels
Display aspect ratio                     : 16:9
Original display aspect ratio            : 16:9
Frame rate mode                          : Constant
Frame rate                               : 23.976 fps
Color space                              : YUV
Chroma subsampling                       : 4:2:0
Bit depth                                : 8 bits
Scan type                                : Progressive
Bits/(Pixel*Frame)                       : 0.099
Stream size                              : 216 MiB (88%)
Writing library                          : x264 core 128 r2216M 198a7ea
Encoding settings                        : cabac=1 / ref=3 / deblock=1:0:0 / analyse=0x1:0x131 / me=hex / subme=7 / psy=1 / psy_rd=1.00:0.20 / mixed_ref=1 / me_range=16 / chroma_me=1 / trellis=1 / 8x8dct=0 / cqm=0 / deadzone=21,11 / fast_pskip=1 / chroma_qp_offset=-3 / threads=8 / lookahead_threads=1 / sliced_threads=0 / nr=0 / decimate=1 / interlaced=0 / bluray_compat=0 / constrained_intra=0 / bframes=3 / b_pyramid=0 / b_adapt=2 / b_bias=0 / direct=3 / weightb=1 / open_gop=0 / weightp=0 / keyint=230 / keyint_min=23 / scenecut=40 / intra_refresh=0 / rc_lookahead=40 / rc=2pass / mbtree=1 / bitrate=1234 / ratetol=1.0 / qcomp=0.60 / qpmin=10 / qpmax=51 / qpstep=4 / cplxblur=20.0 / qblur=0.5 / vbv_maxrate=5000 / vbv_bufsize=1835 / nal_hrd=none / ip_ratio=1.40 / aq=1:1.00
Language                                 : English
Encoded date                             : UTC 2016-03-21 14:01:00
Tagged date                              : UTC 2016-03-21 14:01:00

Audio
ID                                       : 2
Format                                   : AAC
Format/Info                              : Advanced Audio Codec
Format profile                           : LC
Codec ID                                 : 40
Duration                                 : 24mn 31s
Bit rate mode                            : Constant
Bit rate                                 : 160 Kbps
Channel count                            : 2 channels
Channel positions                        : Front: L R
Sampling rate                            : 48.0 KHz
Compression mode                         : Lossy
Stream size                              : 28.1 MiB (11%)
Language                                 : Russian
Encoded date                             : UTC 2016-03-21 14:01:00
Tagged date                              : UTC 2016-03-21 14:01:00

Скриншоты:




Время раздачи:
24/7 (до появления первых 3-5 скачавших)
 
Не забывайте говорить Спасибо. Не уходите с раздачи!   
Торрент: Зарегистрирован [22 мар 2016, 01:23] Для скачивания .torrent
необходима регистрация
Или скачать с помощью
MediaGet
Статус:
Проверен
 
.torrent скачан: 1 раз
Хэш: 6cb12f5535653b469f70d34f393780ce1f28f2b0
Размер: 245.23 МБ (257 146 573 байт)
Стать Автором раздачи
 
 
Раздал: 398.6 ГБ
Скачал: 172 МБ
Ратио: 2373.085
Сообщения: 228130
Зарегистрирован: 17 апр 2014, 15:26


  • Похожие торренты
    Ответы
    Просмотры
    Последнее сообщение

Вернуться в Видео для мобильных устройств

Ресурс не предоставляет электронные версии произведений, а занимается лишь коллекционированием и каталогизацией ссылок, присылаемых и публикуемых на форуме нашими читателями. Если вы являетесь правообладателем какого-либо представленного материала и не желаете чтобы ссылка на него находилась в нашем каталоге, свяжитесь с нами и мы незамедлительно удалим её. Файлы для обмена на трекере предоставлены пользователями сайта, и администрация не несёт ответственности за их содержание. Просьба не заливать файлы, защищенные авторскими правами, а также файлы нелегального содержания!
cron