Малышарики (2015-2016) WEB-DLRip [H.264] (серии 1-19 из ??) [MP4|1920x1080]

 
 Статистика раздачи 
Размер: 1.19 ГБ   |  Зарегистрирован: 21 мар 2016, 00:48   |   .torrent скачан: 0 раз
Сидеров: 1  [ 0 байт/сек ]     Личеров: 0  [ 0 байт/сек ]  
  

Малышарики (2015-2016) WEB-DLRip [H.264] (серии 1-19 из ??) [MP4|1920x1080]

Сообщение BitFire » 21 мар 2016, 00:48

Малышарики (2015-2016) WEB-DLRip

Производство: Россия
Жанр: Развивающий, Минисериал, Обучающий

Режиссер: Марина Мошкова, Ольга Полиектова, Татьяна Полиектова
Персонажи: Малышарики

Описание:
Развивающие мультики для самых маленьких "Малышарики".
Мир Малышариков – это простой и понятный мир увлечений, радости и заботы. В нем живут Малышарики, каждый из которых уже имеет свой особенный характер. Они всегда готовы придумать новую игру или поделиться своими знаниями и умениями. Малышарики говорят с малышами на одном удивительном – детском языке, поэтому всегда близки и понятны.

Продолжительность: ~ 00:05:00 серия
Качество видео: WEB-DLRip

Видео: AVC/H.264, 1920x1080, ~1600 Kbps
Аудио: AAC, 2 ch, 126 Kbps, CBR
Код:
Код: Выделить всё
General
Complete name                  : S:\video\малышарики\Малышарики - 17 серия - Самокат.mp4
Format                         : MPEG-4
Format profile                 : Base Media
Codec ID                       : isom (isom/iso2/avc1/mp41)
File size                      : 64.4 MiB
Duration                       : 5mn 12s
Overall bit rate               : 1 731 Kbps
Writing application            : Lavf57.2.100

Video
ID                             : 1
Format                         : AVC
Format/Info                    : Advanced Video Codec
Format profile                 : High@L4
Format settings, CABAC         : Yes
Format settings, ReFrames      : 3 frames
Codec ID                       : avc1
Codec ID/Info                  : Advanced Video Coding
Duration                       : 5mn 12s
Bit rate                       : 1 599 Kbps
Width                          : 1 920 pixels
Height                         : 1 080 pixels
Display aspect ratio           : 16:9
Frame rate mode                : Constant
Frame rate                     : 25.000 fps
Color space                    : YUV
Chroma subsampling             : 4:2:0
Bit depth                      : 8 bits
Scan type                      : Progressive
Bits/(Pixel*Frame)             : 0.031
Stream size                    : 59.5 MiB (92%)
Color range                    : Limited
Color primaries                : BT.709
Transfer characteristics       : BT.709
Matrix coefficients            : BT.709

Audio
ID                             : 2
Format                         : AAC
Format/Info                    : Advanced Audio Codec
Format profile                 : LC
Codec ID                       : 40
Duration                       : 5mn 12s
Bit rate mode                  : Constant
Bit rate                       : 126 Kbps
Channel(s)                     : 2 channels
Channel positions              : Front: L R
Sampling rate                  : 44.1 KHz
Frame rate                     : 43.066 fps (1024 spf)
Compression mode               : Lossy
Stream size                    : 4.67 MiB (7%)
Default                        : Yes
Alternate group                : 1
01 - Качели
02 - Прогулка
03 - Фломастеры
04 - Ракета
05 - Следы
06 - Башня
07 - Красная шапочка
08 - Солнышко
09 - Ёлка
10 - Попрыгушки
11 - Ручейки
12 - Машинка
13 - Прятки
14 - Домики
15 - Ведёрко
16 - На площадке
17 - Самокат
18 - Футбол
19 - Спокойной ночи
Внимание! Раздача ведётся путём добавления новых серий; при каждом добавлении создаётся новый торрент.
Чтобы начать докачку новой серии, пользователям необходимо сделать следующее:
1. Остановить скачивание;
2. Удалить старый торрент у себя из клиента (старые серии удалять не надо);
3. Скачать новый торрент и запустить его у себя в клиенте вместо старого, при этом указать клиенту путь в старую папку куда и должно происходить скачивание новых серий. Ваш клиент при этом должен произвести хеширование (проверку) старой папки и будет докачивать только те серии, которых у вас ещё нет. Старые серии при этом не удаляются, а продолжают раздаваться! Eсли вы уже удалили старые серии, то предотвратить повторную закачку старых серий можно, отжав галочку в соответствующих местах при запуске нового торрента.

Скриншоты:



Время раздачи: 24/7 (до появления первых 3-5 скачавших)
 
Не забывайте говорить Спасибо. Не уходите с раздачи!   
Торрент: Зарегистрирован [21 мар 2016, 00:48] Для скачивания .torrent
необходима регистрация
Или скачать с помощью
MediaGet
Статус:
Проверен
 
.torrent скачан: 0 раз
Хэш: b414162dde9eed8be0af77a094946c3393864865
Размер: 1.19 ГБ (1 272 861 280 байт)
Стать Автором раздачи
 
 
Раздал: 398.6 ГБ
Скачал: 172 МБ
Ратио: 2373.085
Сообщения: 228130
Зарегистрирован: 17 апр 2014, 15:26


  • Похожие торренты
    Ответы
    Просмотры
    Последнее сообщение

Вернуться в Видео для мобильных устройств

Ресурс не предоставляет электронные версии произведений, а занимается лишь коллекционированием и каталогизацией ссылок, присылаемых и публикуемых на форуме нашими читателями. Если вы являетесь правообладателем какого-либо представленного материала и не желаете чтобы ссылка на него находилась в нашем каталоге, свяжитесь с нами и мы незамедлительно удалим её. Файлы для обмена на трекере предоставлены пользователями сайта, и администрация не несёт ответственности за их содержание. Просьба не заливать файлы, защищенные авторскими правами, а также файлы нелегального содержания!
cron