Йоко (2015) BDRip

 
 Статистика раздачи 
Размер: 3.45 ГБ   |  Зарегистрирован: 21 мар 2016, 00:31   |   .torrent скачан: 0 раз
Сидеров: 1  [ 0 байт/сек ]     Личеров: 13  [ 0 байт/сек ]  
  

Йоко (2015) BDRip

Сообщение BitFire » 21 мар 2016, 00:31

Йоко (2015) BDRip

Производство: Испания, Россия (ООО "Визарт Фильм")
Жанр: Детский, Компьютерная анимация, Приключения, Обучающий

Режиссер: Хуанхо Элорди, Джалил Ризванов, Джуанма Санчес
Персонажи: Митя, Мая, Вик, Тетя Маша

Описание:
История трех друзей, которые каждый день встречаются и играют в Городском парке. Волшебный друг Йоко (в переводе с баскского «дух игры») помогает детям оживить их игры и превращает придумки троицы в реальность, вовлекая их в невероятный мир. Вместе с героями маленькие зрители могут оказаться на дне озера, в космосе, бушующем море, сказочном лесу, сказках, древних городах и тысяче других мест, магия Йоко безгранична... Одна из задач сериала — образовательная, что позволяет детям узнавать больше об истории, традициях, внешнем мире, его флоре и фауне.

Продолжительность: 21 серия по 12 минут
Качество видео: BDRip

Вид субтитров: Отсутствуют

Видео: AVC/H.264, 1920x1080, ~2005 kb/s
Аудио: AAC, 2 ch, 125kbps, CBR
Код:
Код: Выделить всё
Полное имя                               : E:\Мультфильмы\Йоко\ЙОКО - 01.Робот.mp4
Формат                                   : MPEG-4
Профиль формата                          : Base Media
Идентификатор кодека                     : isom (isom/iso2/avc1/mp41)
Размер файла                             : 173 Мбайт
Продолжительность                        : 12 м.
Общий поток                              : 1928 Кбит/сек
Программа кодирования                    : Lavf57.2.100

Видео
Идентификатор                            : 1
Формат                                   : AVC
Формат/Информация                        : Advanced Video Codec
Профиль формата                          : High@L4
Параметр CABAC формата                   : Да
Параметр ReFrames формата                : 3 кадра
Идентификатор кодека                     : avc1
Идентификатор кодека/Информация          : Advanced Video Coding
Продолжительность                        : 12 м.
Битрейт                                  : 1796 Кбит/сек
Ширина                                   : 1920 пикселей
Высота                                   : 1080 пикселей
Соотношение сторон                       : 16:9
Режим частоты кадров                     : Постоянный
Частота кадров                           : 25,000 кадров/сек
Цветовое пространство                    : YUV
Субдискретизация насыщенности            : 4:2:0
Битовая глубина                          : 8 бит
Тип развёртки                            : Прогрессивная
Бит/(Пиксели*Кадры)                      : 0.035
Размер потока                            : 161 Мбайт (93%)
Цветовой диапазон                        : Limited
Основные цвета                           : BT.709
Характеристики трансфера                 : BT.709
Коэффициенты матрицы                     : BT.709

Аудио
Идентификатор                            : 2
Формат                                   : AAC
Формат/Информация                        : Advanced Audio Codec
Профиль формата                          : LC
Идентификатор кодека                     : 40
Продолжительность                        : 12 м.
Вид битрейта                             : Постоянный
Битрейт                                  : 126 Кбит/сек
Каналы                                   : 2 канала
Расположение каналов                     : Front: L R
Частота                                  : 44,1 КГц
Частота кадров                           : 43,066 кадра/сек (1024 spf)
Метод сжатия                             : С потерями
Размер потока                            : 11,3 Мбайт (7%)
Default                                  : Да
Alternate group                          : 1
Скриншоты:





Время раздачи: 24/7 (круглосуточно) (до появления первых 3-5 скачавших)
 
Не забывайте говорить Спасибо. Не уходите с раздачи!   
Торрент: Зарегистрирован [21 мар 2016, 00:31] Для скачивания .torrent
необходима регистрация
Или скачать с помощью
MediaGet
Статус:
Проверен
 
.torrent скачан: 0 раз
Хэш: e17eaa69401e272464b58e0f675fba15e74c2dc2
Размер: 3.45 ГБ (3 700 668 855 байт)
Стать Автором раздачи
 
 
Раздал: 398.6 ГБ
Скачал: 172 МБ
Ратио: 2373.085
Сообщения: 228130
Зарегистрирован: 17 апр 2014, 15:26


  • Похожие торренты
    Ответы
    Просмотры
    Последнее сообщение

Вернуться в Видео для мобильных устройств

Ресурс не предоставляет электронные версии произведений, а занимается лишь коллекционированием и каталогизацией ссылок, присылаемых и публикуемых на форуме нашими читателями. Если вы являетесь правообладателем какого-либо представленного материала и не желаете чтобы ссылка на него находилась в нашем каталоге, свяжитесь с нами и мы незамедлительно удалим её. Файлы для обмена на трекере предоставлены пользователями сайта, и администрация не несёт ответственности за их содержание. Просьба не заливать файлы, защищенные авторскими правами, а также файлы нелегального содержания!
cron